<?xml version="1.0" standalone="no"?>
<!DOCTYPE svg PUBLIC "-//W3C//DTD SVG 1.1//EN" "http://www.w3.org/Graphics/SVG/1.1/DTD/svg11.dtd" >
<svg xmlns="http://www.w3.org/2000/svg">
<metadata>Generated by IcoMoon</metadata>
<defs>
<font id="wpshop-core" horiz-adv-x="1024">
<font-face units-per-em="1024" ascent="960" descent="-64" />
<missing-glyph horiz-adv-x="1024" />
<glyph unicode="&#x20;" horiz-adv-x="512" d="" />
<glyph unicode="&#x21;" glyph-name="alert-octagon" d="M968.533 631.467l-251.733 251.733c-4.267 8.533-17.067 12.8-29.867 12.8h-349.867c-12.8 0-25.6-4.267-29.867-12.8l-251.733-251.733c-8.533-4.267-12.8-17.067-12.8-29.867v-354.133c0-12.8 4.267-21.333 12.8-29.867l251.733-251.733c4.267-4.267 17.067-8.533 29.867-8.533h354.133c12.8 0 21.333 4.267 29.867 12.8l251.733 251.733c8.533 8.533 12.8 17.067 12.8 29.867v349.867c-4.267 12.8-8.533 25.6-17.067 29.867zM896 268.8l-226.133-226.133h-315.733l-226.133 226.133v315.733l226.133 226.133h320l221.867-226.133v-315.733zM512 640c-25.6 0-42.667-17.067-42.667-42.667v-170.667c0-25.6 17.067-42.667 42.667-42.667s42.667 17.067 42.667 42.667v170.667c0 25.6-17.067 42.667-42.667 42.667zM482.133 285.867c-8.533-8.533-12.8-17.067-12.8-29.867s4.267-21.333 12.8-29.867c8.533-8.533 17.067-12.8 29.867-12.8s21.333 4.267 29.867 12.8c8.533 8.533 12.8 21.333 12.8 29.867s-4.267 21.333-12.8 29.867c-17.067 17.067-42.667 17.067-59.733 0z" />
<glyph unicode="&#x23;" glyph-name="hash" d="M853.333 341.334h-179.2l17.067 170.667h162.133c25.6 0 42.667 17.067 42.667 42.667s-17.067 42.667-42.667 42.667h-149.333l21.333 209.067c4.267 21.333-12.8 42.667-38.4 46.933-21.333 4.267-42.667-12.8-46.933-38.4l-25.6-217.6h-170.667l25.6 209.067c4.267 21.333-12.8 42.667-38.4 46.933-21.333 4.267-42.667-12.8-46.933-38.4l-25.6-217.6h-187.733c-25.6 0-42.667-17.067-42.667-42.667s17.067-42.667 42.667-42.667h179.2l-17.067-170.667h-162.133c-25.6 0-42.667-17.067-42.667-42.667s17.067-42.667 42.667-42.667h149.333l-21.333-209.067c-4.267-21.333 12.8-42.667 38.4-46.933 0 0 4.267 0 4.267 0 21.333 0 38.4 17.067 42.667 38.4l25.6 217.6h170.667l-25.6-209.067c-4.267-21.333 12.8-42.667 38.4-46.933 0 0 4.267 0 4.267 0 21.333 0 38.4 17.067 42.667 38.4l25.6 217.6h187.733c25.6 0 42.667 17.067 42.667 42.667s-17.067 42.667-42.667 42.667zM418.133 341.334l17.067 170.667h170.667l-17.067-170.667h-170.667z" />
<glyph unicode="&#x24;" glyph-name="dollar-sign" d="M618.667 469.334h-64v213.333h170.667c25.6 0 42.667 17.067 42.667 42.667s-17.067 42.667-42.667 42.667h-170.667v128c0 25.6-17.067 42.667-42.667 42.667s-42.667-17.067-42.667-42.667v-128h-64c-106.667 0-192-85.333-192-192s85.333-192 192-192h64v-213.333h-213.333c-25.6 0-42.667-17.067-42.667-42.667s17.067-42.667 42.667-42.667h213.333v-128c0-25.6 17.067-42.667 42.667-42.667s42.667 17.067 42.667 42.667v128h64c106.667 0 192 85.333 192 192s-85.333 192-192 192zM405.333 469.334c-59.733 0-106.667 46.933-106.667 106.667s46.933 106.667 106.667 106.667h64v-213.333h-64zM618.667 170.667h-64v213.333h64c59.733 0 106.667-46.933 106.667-106.667s-46.933-106.667-106.667-106.667z" />
<glyph unicode="&#x25;" glyph-name="percent" d="M840.533 755.2c-17.067 17.067-42.667 17.067-59.733 0l-597.333-597.333c-17.067-17.067-17.067-42.667 0-59.733 8.533-8.533 17.067-12.8 29.867-12.8s21.333 4.267 29.867 12.8l597.333 597.333c17.067 17.067 17.067 42.667 0 59.733zM277.333 512c81.067 0 149.333 68.267 149.333 149.333s-68.267 149.333-149.333 149.333-149.333-68.267-149.333-149.333 68.267-149.333 149.333-149.333zM277.333 725.334c34.133 0 64-29.867 64-64s-29.867-64-64-64-64 29.867-64 64 29.867 64 64 64zM746.667 341.334c-81.067 0-149.333-68.267-149.333-149.333s68.267-149.333 149.333-149.333 149.333 68.267 149.333 149.333-68.267 149.333-149.333 149.333zM746.667 128c-34.133 0-64 29.867-64 64s29.867 64 64 64 64-29.867 64-64-29.867-64-64-64z" />
<glyph unicode="&#x2b;" glyph-name="plus" d="M810.667 469.334h-256v256c0 25.6-17.067 42.667-42.667 42.667s-42.667-17.067-42.667-42.667v-256h-256c-25.6 0-42.667-17.067-42.667-42.667s17.067-42.667 42.667-42.667h256v-256c0-25.6 17.067-42.667 42.667-42.667s42.667 17.067 42.667 42.667v256h256c25.6 0 42.667 17.067 42.667 42.667s-17.067 42.667-42.667 42.667z" />
<glyph unicode="&#x2d;" glyph-name="minus" d="M810.667 469.334h-597.333c-25.6 0-42.667-17.067-42.667-42.667s17.067-42.667 42.667-42.667h597.333c25.6 0 42.667 17.067 42.667 42.667s-17.067 42.667-42.667 42.667z" />
<glyph unicode="&#x40;" glyph-name="at-sign" d="M512 896c-123.733 0-243.2-46.933-332.8-136.533s-136.533-209.067-136.533-332.8c0-260.267 209.067-469.333 469.333-469.333 102.4 0 204.8 34.133 285.867 98.133 17.067 12.8 21.333 42.667 8.533 59.733s-42.667 21.333-59.733 8.533c-68.267-51.2-149.333-81.067-234.667-81.067-213.333 0-384 170.667-384 384 0 102.4 38.4 200.533 110.933 273.067s170.667 110.933 273.067 110.933c213.333 0 384-170.667 384-384v-42.667c0-46.933-38.4-85.333-85.333-85.333s-85.333 38.4-85.333 85.333v213.333c0 25.6-17.067 42.667-42.667 42.667s-42.667-17.067-42.667-42.667v0c-34.133 25.6-81.067 42.667-128 42.667-119.467 0-213.333-93.867-213.333-213.333s93.867-213.333 213.333-213.333c64 0 119.467 29.867 157.867 72.533 29.867-42.667 81.067-72.533 140.8-72.533 93.867 0 170.667 76.8 170.667 170.667v42.667c0 260.267-209.067 469.333-469.333 469.333zM512 298.667c-72.533 0-128 55.467-128 128s55.467 128 128 128 128-55.467 128-128-55.467-128-128-128z" />
<glyph unicode="&#x42;" glyph-name="bold" d="M742.4 443.734c42.667 38.4 68.267 93.867 68.267 153.6 0 119.467-93.867 213.333-213.333 213.333h-341.333c-25.6 0-42.667-17.067-42.667-42.667v-682.667c0-25.6 17.067-42.667 42.667-42.667h384c119.467 0 213.333 93.867 213.333 213.333 0 81.067-46.933 149.333-110.933 187.733zM298.667 725.334h298.667c72.533 0 128-55.467 128-128s-55.467-128-128-128h-298.667v256zM640 128h-341.333v256h341.333c72.533 0 128-55.467 128-128s-55.467-128-128-128z" />
<glyph unicode="&#x49;" glyph-name="italic" d="M810.667 810.667h-384c-25.6 0-42.667-17.067-42.667-42.667s17.067-42.667 42.667-42.667h153.6l-226.133-597.333h-140.8c-25.6 0-42.667-17.067-42.667-42.667s17.067-42.667 42.667-42.667h384c25.6 0 42.667 17.067 42.667 42.667s-17.067 42.667-42.667 42.667h-153.6l221.867 597.333h145.067c25.6 0 42.667 17.067 42.667 42.667s-17.067 42.667-42.667 42.667z" />
<glyph unicode="&#x54;" glyph-name="type" d="M853.333 810.667h-682.667c-25.6 0-42.667-17.067-42.667-42.667v-128c0-25.6 17.067-42.667 42.667-42.667s42.667 17.067 42.667 42.667v85.333h256v-597.333h-85.333c-25.6 0-42.667-17.067-42.667-42.667s17.067-42.667 42.667-42.667h256c25.6 0 42.667 17.067 42.667 42.667s-17.067 42.667-42.667 42.667h-85.333v597.333h256v-85.333c0-25.6 17.067-42.667 42.667-42.667s42.667 17.067 42.667 42.667v128c0 25.6-17.067 42.667-42.667 42.667z" />
<glyph unicode="&#x55;" glyph-name="underline" d="M512 213.334c166.4 0 298.667 132.267 298.667 298.667v298.667c0 25.6-17.067 42.667-42.667 42.667s-42.667-17.067-42.667-42.667v-298.667c0-119.467-93.867-213.333-213.333-213.333s-213.333 93.867-213.333 213.333v298.667c0 25.6-17.067 42.667-42.667 42.667s-42.667-17.067-42.667-42.667v-298.667c0-166.4 132.267-298.667 298.667-298.667zM853.333 85.334h-682.667c-25.6 0-42.667-17.067-42.667-42.667s17.067-42.667 42.667-42.667h682.667c25.6 0 42.667 17.067 42.667 42.667s-17.067 42.667-42.667 42.667z" />
<glyph unicode="&#xd7;" glyph-name="x-circle" d="M512 896c-260.267 0-469.333-209.067-469.333-469.333s209.067-469.333 469.333-469.333 469.333 209.067 469.333 469.333-209.067 469.333-469.333 469.333zM512 42.667c-213.333 0-384 170.667-384 384s170.667 384 384 384c213.333 0 384-170.667 384-384s-170.667-384-384-384zM669.867 584.534c-17.067 17.067-42.667 17.067-59.733 0l-98.133-98.133-98.133 98.133c-17.067 17.067-42.667 17.067-59.733 0s-17.067-42.667 0-59.733l98.133-98.133-98.133-98.133c-17.067-17.067-17.067-42.667 0-59.733 8.533-8.533 17.067-12.8 29.867-12.8s21.333 4.267 29.867 12.8l98.133 98.133 98.133-98.133c8.533-8.533 21.333-12.8 29.867-12.8s21.333 4.267 29.867 12.8c17.067 17.067 17.067 42.667 0 59.733l-98.133 98.133 98.133 98.133c17.067 17.067 17.067 42.667 0 59.733z" />
<glyph unicode="&#x201c;" glyph-name="format_quote" d="M598 212.667l84 172h-128v256h256v-256l-84-172h-128zM256 212.667l86 172h-128v256h256v-256l-86-172h-128z" />
<glyph unicode="&#x2139;" glyph-name="info" d="M512 896c-260.267 0-469.333-209.067-469.333-469.333s209.067-469.333 469.333-469.333 469.333 209.067 469.333 469.333-209.067 469.333-469.333 469.333zM512 42.667c-213.333 0-384 170.667-384 384s170.667 384 384 384c213.333 0 384-170.667 384-384s-170.667-384-384-384zM512 469.334c-25.6 0-42.667-17.067-42.667-42.667v-170.667c0-25.6 17.067-42.667 42.667-42.667s42.667 17.067 42.667 42.667v170.667c0 25.6-17.067 42.667-42.667 42.667zM482.133 627.2c-8.533-8.533-12.8-17.067-12.8-29.867s4.267-21.333 12.8-29.867c8.533-8.533 17.067-12.8 29.867-12.8s21.333 4.267 29.867 12.8c8.533 8.533 12.8 17.067 12.8 29.867s-4.267 21.333-12.8 29.867c-17.067 17.067-42.667 17.067-59.733 0z" />
<glyph unicode="&#x2190;" glyph-name="arrow-left" d="M810.667 469.334h-494.933l226.133 226.133c17.067 17.067 17.067 42.667 0 59.733s-42.667 17.067-59.733 0l-298.667-298.667c-4.267-4.267-8.533-8.533-8.533-12.8-4.267-8.533-4.267-21.333 0-34.133 4.267-4.267 4.267-8.533 8.533-12.8l298.667-298.667c8.533-8.533 21.333-12.8 29.867-12.8s21.333 4.267 29.867 12.8c17.067 17.067 17.067 42.667 0 59.733l-226.133 226.133h494.933c25.6 0 42.667 17.067 42.667 42.667s-17.067 42.667-42.667 42.667z" />
<glyph unicode="&#x2191;" glyph-name="arrow-up" d="M840.533 456.534l-298.667 298.667c-4.267 4.267-8.533 8.533-12.8 8.533-8.533 4.267-21.333 4.267-34.133 0-4.267-4.267-8.533-4.267-12.8-8.533l-298.667-298.667c-17.067-17.067-17.067-42.667 0-59.733s42.667-17.067 59.733 0l226.133 226.133v-494.933c0-25.6 17.067-42.667 42.667-42.667s42.667 17.067 42.667 42.667v494.933l226.133-226.133c8.533-8.533 21.333-12.8 29.867-12.8s21.333 4.267 29.867 12.8c17.067 17.067 17.067 42.667 0 59.733z" />
<glyph unicode="&#x2192;" glyph-name="arrow-right" d="M849.067 409.6c4.267 8.533 4.267 21.333 0 34.133-4.267 4.267-4.267 8.533-8.533 12.8l-298.667 298.667c-17.067 17.067-42.667 17.067-59.733 0s-17.067-42.667 0-59.733l226.133-226.133h-494.933c-25.6 0-42.667-17.067-42.667-42.667s17.067-42.667 42.667-42.667h494.933l-226.133-226.133c-17.067-17.067-17.067-42.667 0-59.733 8.533-8.533 21.333-12.8 29.867-12.8s21.333 4.267 29.867 12.8l298.667 298.667c4.267 4.267 8.533 8.533 8.533 12.8z" />
<glyph unicode="&#x2193;" glyph-name="arrow-down" d="M840.533 456.534c-17.067 17.067-42.667 17.067-59.733 0l-226.133-226.133v494.933c0 25.6-17.067 42.667-42.667 42.667s-42.667-17.067-42.667-42.667v-494.933l-226.133 226.133c-17.067 17.067-42.667 17.067-59.733 0s-17.067-42.667 0-59.733l298.667-298.667c4.267-4.267 8.533-8.533 12.8-8.533 4.267-4.267 12.8-4.267 17.067-4.267s12.8 0 17.067 4.267c4.267 4.267 8.533 4.267 12.8 8.533l298.667 298.667c17.067 17.067 17.067 42.667 0 59.733z" />
<glyph unicode="&#x2196;" glyph-name="arrow-up-left" d="M401.067 597.334h324.267c25.6 0 42.667 17.067 42.667 42.667s-17.067 42.667-42.667 42.667h-426.667c-4.267 0-12.8 0-17.067-4.267-8.533-4.267-17.067-12.8-21.333-21.333-4.267-4.267-4.267-12.8-4.267-17.067v-426.667c0-25.6 17.067-42.667 42.667-42.667s42.667 17.067 42.667 42.667v324.267l354.133-354.133c8.533-8.533 21.333-12.8 29.867-12.8s21.333 4.267 29.867 12.8c17.067 17.067 17.067 42.667 0 59.733l-354.133 354.133z" />
<glyph unicode="&#x2197;" glyph-name="arrow-up-right" d="M763.733 657.067c-4.267 8.533-12.8 17.067-21.333 21.333-4.267 4.267-12.8 4.267-17.067 4.267h-426.667c-25.6 0-42.667-17.067-42.667-42.667s17.067-42.667 42.667-42.667h324.267l-354.133-354.133c-17.067-17.067-17.067-42.667 0-59.733 8.533-8.533 17.067-12.8 29.867-12.8s21.333 4.267 29.867 12.8l354.133 354.133v-324.267c0-25.6 17.067-42.667 42.667-42.667s42.667 17.067 42.667 42.667v426.667c0 4.267 0 12.8-4.267 17.067z" />
<glyph unicode="&#x2198;" glyph-name="arrow-down-right" d="M768 640c0 25.6-17.067 42.667-42.667 42.667s-42.667-17.067-42.667-42.667v-324.267l-354.133 354.133c-17.067 17.067-42.667 17.067-59.733 0s-17.067-42.667 0-59.733l354.133-354.133h-324.267c-25.6 0-42.667-17.067-42.667-42.667s17.067-42.667 42.667-42.667h426.667c4.267 0 12.8 0 17.067 4.267 8.533 4.267 17.067 12.8 21.333 21.333 4.267 4.267 4.267 12.8 4.267 17.067v426.667z" />
<glyph unicode="&#x2199;" glyph-name="arrow-down-left" d="M725.333 256h-324.267l354.133 354.133c17.067 17.067 17.067 42.667 0 59.733s-42.667 17.067-59.733 0l-354.133-354.133v324.267c0 25.6-17.067 42.667-42.667 42.667s-42.667-17.067-42.667-42.667v-426.667c0-4.267 0-12.8 4.267-17.067 4.267-8.533 12.8-17.067 21.333-21.333 4.267-4.267 12.8-4.267 17.067-4.267h426.667c25.6 0 42.667 17.067 42.667 42.667s-17.067 42.667-42.667 42.667z" />
<glyph unicode="&#x21a4;" glyph-name="chevron-left" d="M443.733 426.667l226.133 226.133c17.067 17.067 17.067 42.667 0 59.733s-42.667 17.067-59.733 0l-256-256c-17.067-17.067-17.067-42.667 0-59.733l256-256c8.533-8.533 21.333-12.8 29.867-12.8s21.333 4.267 29.867 12.8c17.067 17.067 17.067 42.667 0 59.733l-226.133 226.133z" />
<glyph unicode="&#x21a6;" glyph-name="chevron-right" d="M669.867 456.534l-256 256c-17.067 17.067-42.667 17.067-59.733 0s-17.067-42.667 0-59.733l226.133-226.133-226.133-226.133c-17.067-17.067-17.067-42.667 0-59.733 8.533-8.533 17.067-12.8 29.867-12.8s21.333 4.267 29.867 12.8l256 256c17.067 17.067 17.067 42.667 0 59.733z" />
<glyph unicode="&#x21af;" glyph-name="zap" d="M934.4 529.067c-8.533 17.067-21.333 25.6-38.4 25.6h-337.067l38.4 294.4c4.267 17.067-8.533 38.4-25.6 42.667-17.067 8.533-38.4 4.267-51.2-12.8l-426.667-512c-8.533-12.8-12.8-29.867-4.267-46.933 8.533-12.8 21.333-21.333 38.4-21.333h337.067l-38.4-294.4c-4.267-17.067 8.533-38.4 25.6-42.667 4.267-4.267 12.8-4.267 17.067-4.267 12.8 0 25.6 4.267 34.133 17.067l426.667 512c8.533 12.8 12.8 29.867 4.267 42.667zM529.067 140.8l25.6 196.267c0 12.8-4.267 25.6-8.533 34.133-8.533 8.533-21.333 12.8-34.133 12.8h-294.4l273.067 328.533-21.333-196.267c0-12.8 4.267-25.6 8.533-34.133 8.533-8.533 21.333-12.8 29.867-12.8h294.4l-273.067-328.533z" />
<glyph unicode="&#x21ba;" glyph-name="refresh-ccw" d="M42.667 469.334h256c25.6 0 42.667 17.067 42.667 42.667s-17.067 42.667-42.667 42.667h-149.333l119.467 115.2c34.133 34.133 81.067 64 128 81.067 85.333 29.867 179.2 25.6 260.267-12.8s145.067-106.667 174.933-196.267c8.533-21.333 34.133-34.133 55.467-25.6s34.133 34.133 25.6 55.467c-38.4 106.667-115.2 192-217.6 243.2s-217.6 55.467-324.267 17.067c-59.733-25.6-115.2-59.733-157.867-102.4l-128-119.467v157.867c0 25.6-17.067 42.667-42.667 42.667s-42.667-17.067-42.667-42.667v-256c0 0 0-4.267 0-4.267 0-4.267 0-8.533 0-8.533 0-4.267 4.267-4.267 4.267-8.533 0 0 0-4.267 4.267-4.267 0 0 0 0 0 0 4.267-4.267 8.533-8.533 12.8-8.533 0 0 0 0 0 0 8.533-8.533 17.067-8.533 21.333-8.533zM1024 349.867c0 4.267 0 4.267 0 8.533s-4.267 4.267-4.267 8.533c0 0 0 4.267-4.267 4.267 0 0 0 0 0 0-4.267 4.267-4.267 4.267-8.533 4.267 0 0-4.267 4.267-4.267 4.267s-4.267 0-4.267 0-8.533 0-12.8 4.267c0 0 0 0 0 0h-256c-25.6 0-42.667-17.067-42.667-42.667s17.067-42.667 42.667-42.667h149.333l-119.467-115.2c-132.267-132.267-349.867-132.267-482.133 0-34.133 34.133-64 81.067-81.067 128-8.533 21.333-34.133 34.133-55.467 25.6s-34.133-34.133-25.6-55.467c21.333-59.733 55.467-115.2 102.4-157.867 85.333-85.333 192-123.733 302.933-123.733s217.6 42.667 298.667 123.733l128 119.467v-157.867c0-25.6 17.067-42.667 42.667-42.667s42.667 17.067 42.667 42.667v256c-8.533 4.267-8.533 4.267-8.533 8.533z" />
<glyph unicode="&#x21bb;" glyph-name="refresh-cw" d="M887.467 337.067c-21.333 8.533-46.933-4.267-55.467-25.6-17.067-46.933-42.667-93.867-81.067-128-59.733-64-149.333-98.133-238.933-98.133 0 0 0 0 0 0-89.6 0-174.933 34.133-243.2 102.4l-119.467 110.933h149.333c25.6 0 42.667 17.067 42.667 42.667s-17.067 42.667-42.667 42.667h-256c0 0 0 0 0 0-4.267 0-8.533 0-8.533-4.267 0 0-4.267 0-4.267 0s-4.267 0-4.267-4.267c-4.267 0-8.533-4.267-8.533-8.533 0 0 0 0 0 0s0-4.267-4.267-4.267c0-4.267-4.267-4.267-4.267-8.533s0-4.267 0-8.533c0 0 0-4.267 0-4.267v-256c0-25.6 17.067-42.667 42.667-42.667s42.667 17.067 42.667 42.667v157.867l123.733-119.467c72.533-81.067 179.2-123.733 294.4-123.733 0 0 0 0 0 0 115.2 0 221.867 42.667 302.933 123.733 42.667 42.667 81.067 98.133 102.4 157.867 4.267 25.6-8.533 51.2-29.867 55.467zM1024 507.734c0 0 0 4.267 0 4.267v256c0 25.6-17.067 42.667-42.667 42.667s-42.667-17.067-42.667-42.667v-157.867l-123.733 119.467c-42.667 42.667-98.133 81.067-157.867 102.4-110.933 34.133-226.133 29.867-328.533-21.333-102.4-46.933-179.2-132.267-217.6-243.2-8.533-21.333 4.267-46.933 25.6-51.2 21.333-8.533 46.933 4.267 55.467 25.6 29.867 85.333 93.867 153.6 174.933 196.267 81.067 38.4 174.933 42.667 260.267 12.8 46.933-17.067 93.867-42.667 128-81.067l119.467-115.2h-149.333c-25.6 0-42.667-17.067-42.667-42.667s17.067-42.667 42.667-42.667h256c4.267 0 12.8 0 17.067 4.267 0 0 0 0 0 0 4.267 4.267 8.533 4.267 12.8 8.533 0 0 0 0 0 0s0 4.267 4.267 4.267c0 4.267 4.267 4.267 4.267 8.533 4.267 4.267 4.267 8.533 4.267 12.8z" />
<glyph unicode="&#x21d0;" glyph-name="arrow-left-circle" d="M512 896c-260.267 0-469.333-209.067-469.333-469.333s209.067-469.333 469.333-469.333 469.333 209.067 469.333 469.333-209.067 469.333-469.333 469.333zM512 42.667c-213.333 0-384 170.667-384 384s170.667 384 384 384c213.333 0 384-170.667 384-384s-170.667-384-384-384zM682.667 469.334h-238.933l98.133 98.133c17.067 17.067 17.067 42.667 0 59.733s-42.667 17.067-59.733 0l-170.667-170.667c-4.267-4.267-8.533-8.533-8.533-12.8-4.267-8.533-4.267-21.333 0-34.133 4.267-4.267 4.267-8.533 8.533-12.8l170.667-170.667c8.533-8.533 21.333-12.8 29.867-12.8s21.333 4.267 29.867 12.8c17.067 17.067 17.067 42.667 0 59.733l-98.133 98.133h238.933c25.6 0 42.667 17.067 42.667 42.667s-17.067 42.667-42.667 42.667z" />
<glyph unicode="&#x21d1;" glyph-name="arrow-up-circle" d="M512 896c-260.267 0-469.333-209.067-469.333-469.333s209.067-469.333 469.333-469.333 469.333 209.067 469.333 469.333-209.067 469.333-469.333 469.333zM512 42.667c-213.333 0-384 170.667-384 384s170.667 384 384 384c213.333 0 384-170.667 384-384s-170.667-384-384-384zM541.867 627.2c-4.267 4.267-8.533 8.533-12.8 8.533-8.533 4.267-21.333 4.267-34.133 0-4.267-4.267-8.533-4.267-12.8-8.533l-170.667-170.667c-17.067-17.067-17.067-42.667 0-59.733s42.667-17.067 59.733 0l98.133 98.133v-238.933c0-25.6 17.067-42.667 42.667-42.667s42.667 17.067 42.667 42.667v238.933l98.133-98.133c8.533-8.533 21.333-12.8 29.867-12.8s21.333 4.267 29.867 12.8c17.067 17.067 17.067 42.667 0 59.733l-170.667 170.667z" />
<glyph unicode="&#x21d2;" glyph-name="arrow-right-circle" d="M512 896c-260.267 0-469.333-209.067-469.333-469.333s209.067-469.333 469.333-469.333 469.333 209.067 469.333 469.333-209.067 469.333-469.333 469.333zM512 42.667c-213.333 0-384 170.667-384 384s170.667 384 384 384c213.333 0 384-170.667 384-384s-170.667-384-384-384zM721.067 443.734c-4.267 4.267-4.267 8.533-8.533 12.8l-170.667 170.667c-17.067 17.067-42.667 17.067-59.733 0s-17.067-42.667 0-59.733l98.133-98.133h-238.933c-25.6 0-42.667-17.067-42.667-42.667s17.067-42.667 42.667-42.667h238.933l-98.133-98.133c-17.067-17.067-17.067-42.667 0-59.733 8.533-8.533 21.333-12.8 29.867-12.8s21.333 4.267 29.867 12.8l170.667 170.667c4.267 4.267 8.533 8.533 8.533 12.8 4.267 12.8 4.267 21.333 0 34.133z" />
<glyph unicode="&#x21d3;" glyph-name="arrow-down-circle" d="M512 896c-260.267 0-469.333-209.067-469.333-469.333s209.067-469.333 469.333-469.333 469.333 209.067 469.333 469.333-209.067 469.333-469.333 469.333zM512 42.667c-213.333 0-384 170.667-384 384s170.667 384 384 384c213.333 0 384-170.667 384-384s-170.667-384-384-384zM652.8 456.534l-98.133-98.133v238.933c0 25.6-17.067 42.667-42.667 42.667s-42.667-17.067-42.667-42.667v-238.933l-98.133 98.133c-17.067 17.067-42.667 17.067-59.733 0s-17.067-42.667 0-59.733l170.667-170.667c4.267-4.267 8.533-8.533 12.8-8.533 4.267-4.267 12.8-4.267 17.067-4.267s12.8 0 17.067 4.267c4.267 4.267 8.533 4.267 12.8 8.533l170.667 170.667c17.067 17.067 17.067 42.667 0 59.733s-42.667 17.067-59.733 0z" />
<glyph unicode="&#x21e6;" glyph-name="rewind" d="M486.4 763.734c-12.8 8.533-34.133 4.267-46.933-4.267l-384-298.667c-8.533-8.533-12.8-21.333-12.8-34.133s4.267-25.6 17.067-34.133l384-298.667c8.533-4.267 17.067-8.533 25.6-8.533 4.267 0 12.8 0 17.067 4.267 12.8 8.533 25.6 21.333 25.6 38.4v597.333c0 17.067-8.533 29.867-25.6 38.4zM426.667 213.334l-273.067 213.333 273.067 213.333v-426.667zM955.733 763.734c-12.8 8.533-34.133 4.267-46.933-4.267l-384-298.667c-8.533-8.533-12.8-21.333-12.8-34.133s4.267-25.6 17.067-34.133l384-298.667c8.533-4.267 17.067-8.533 25.6-8.533 4.267 0 12.8 0 17.067 4.267 12.8 8.533 25.6 21.333 25.6 38.4v597.333c0 17.067-8.533 29.867-25.6 38.4zM896 213.334l-273.067 213.333 273.067 213.333v-426.667z" />
<glyph unicode="&#x21ea;" glyph-name="share" d="M853.333 469.334c-25.6 0-42.667-17.067-42.667-42.667v-341.333c0-25.6-17.067-42.667-42.667-42.667h-512c-25.6 0-42.667 17.067-42.667 42.667v341.333c0 25.6-17.067 42.667-42.667 42.667s-42.667-17.067-42.667-42.667v-341.333c0-72.533 55.467-128 128-128h512c72.533 0 128 55.467 128 128v341.333c0 25.6-17.067 42.667-42.667 42.667zM371.2 652.8l98.133 98.133v-452.267c0-25.6 17.067-42.667 42.667-42.667s42.667 17.067 42.667 42.667v452.267l98.133-98.133c8.533-8.533 17.067-12.8 29.867-12.8s21.333 4.267 29.867 12.8c17.067 17.067 17.067 42.667 0 59.733l-170.667 170.667c-4.267 4.267-8.533 8.533-12.8 8.533-8.533 4.267-21.333 4.267-34.133 0-4.267-4.267-8.533-4.267-12.8-8.533l-170.667-170.667c-17.067-17.067-17.067-42.667 0-59.733s42.667-17.067 59.733 0z" />
<glyph unicode="&#x221a;" glyph-name="activity" d="M938.667 469.334h-170.667c-17.067 0-34.133-12.8-38.4-29.867l-89.6-260.267-217.6 644.267c-4.267 17.067-21.333 29.867-38.4 29.867s-34.133-12.8-38.4-29.867l-119.467-354.133h-140.8c-25.6 0-42.667-17.067-42.667-42.667s17.067-42.667 42.667-42.667h170.667c17.067 0 34.133 12.8 38.4 29.867l89.6 260.267 217.6-648.533c4.267-17.067 21.333-29.867 38.4-29.867s34.133 12.8 38.4 29.867l119.467 354.133h140.8c25.6 0 42.667 17.067 42.667 42.667s-17.067 46.933-42.667 46.933z" />
<glyph unicode="&#x226a;" glyph-name="code" d="M968.533 456.534l-256 256c-17.067 17.067-42.667 17.067-59.733 0s-17.067-42.667 0-59.733l226.133-226.133-226.133-226.133c-17.067-17.067-17.067-42.667 0-59.733 8.533-8.533 21.333-12.8 29.867-12.8s21.333 4.267 29.867 12.8l256 256c17.067 17.067 17.067 42.667 0 59.733zM371.2 712.534c-17.067 17.067-42.667 17.067-59.733 0l-256-256c-17.067-17.067-17.067-42.667 0-59.733l256-256c8.533-8.533 17.067-12.8 29.867-12.8s21.333 4.267 29.867 12.8c17.067 17.067 17.067 42.667 0 59.733l-226.133 226.133 226.133 226.133c17.067 17.067 17.067 42.667 0 59.733z" />
<glyph unicode="&#x2295;" glyph-name="plus-circle" d="M512 896c-260.267 0-469.333-209.067-469.333-469.333s209.067-469.333 469.333-469.333 469.333 209.067 469.333 469.333-209.067 469.333-469.333 469.333zM512 42.667c-213.333 0-384 170.667-384 384s170.667 384 384 384c213.333 0 384-170.667 384-384s-170.667-384-384-384zM682.667 469.334h-128v128c0 25.6-17.067 42.667-42.667 42.667s-42.667-17.067-42.667-42.667v-128h-128c-25.6 0-42.667-17.067-42.667-42.667s17.067-42.667 42.667-42.667h128v-128c0-25.6 17.067-42.667 42.667-42.667s42.667 17.067 42.667 42.667v128h128c25.6 0 42.667 17.067 42.667 42.667s-17.067 42.667-42.667 42.667z" />
<glyph unicode="&#x2296;" glyph-name="minus-circle" d="M512 896c-260.267 0-469.333-209.067-469.333-469.333s209.067-469.333 469.333-469.333 469.333 209.067 469.333 469.333-209.067 469.333-469.333 469.333zM512 42.667c-213.333 0-384 170.667-384 384s170.667 384 384 384c213.333 0 384-170.667 384-384s-170.667-384-384-384zM682.667 469.334h-341.333c-25.6 0-42.667-17.067-42.667-42.667s17.067-42.667 42.667-42.667h341.333c25.6 0 42.667 17.067 42.667 42.667s-17.067 42.667-42.667 42.667z" />
<glyph unicode="&#x22ee;" glyph-name="more-vertical" d="M597.333 426.667c0-47.128-38.205-85.333-85.333-85.333s-85.333 38.205-85.333 85.333c0 47.128 38.205 85.333 85.333 85.333s85.333-38.205 85.333-85.333zM597.333 725.334c0-47.128-38.205-85.333-85.333-85.333s-85.333 38.205-85.333 85.333c0 47.128 38.205 85.333 85.333 85.333s85.333-38.205 85.333-85.333zM597.333 128c0-47.128-38.205-85.333-85.333-85.333s-85.333 38.205-85.333 85.333c0 47.128 38.205 85.333 85.333 85.333s85.333-38.205 85.333-85.333z" />
<glyph unicode="&#x22ef;" glyph-name="more-horizontal" d="M597.333 426.667c0-47.128-38.205-85.333-85.333-85.333s-85.333 38.205-85.333 85.333c0 47.128 38.205 85.333 85.333 85.333s85.333-38.205 85.333-85.333zM896 426.667c0-47.128-38.205-85.333-85.333-85.333s-85.333 38.205-85.333 85.333c0 47.128 38.205 85.333 85.333 85.333s85.333-38.205 85.333-85.333zM298.667 426.667c0-47.128-38.205-85.333-85.333-85.333s-85.333 38.205-85.333 85.333c0 47.128 38.205 85.333 85.333 85.333s85.333-38.205 85.333-85.333z" />
<glyph unicode="&#x2318;" glyph-name="command" d="M768 341.334h-85.333v170.667h85.333c93.867 0 170.667 76.8 170.667 170.667s-76.8 170.667-170.667 170.667-170.667-76.8-170.667-170.667v-85.333h-170.667v85.333c0 93.867-76.8 170.667-170.667 170.667s-170.667-76.8-170.667-170.667 76.8-170.667 170.667-170.667h85.333v-170.667h-85.333c-93.867 0-170.667-76.8-170.667-170.667s76.8-170.667 170.667-170.667 170.667 76.8 170.667 170.667v85.333h170.667v-85.333c0-93.867 76.8-170.667 170.667-170.667s170.667 76.8 170.667 170.667-76.8 170.667-170.667 170.667zM682.667 682.667c0 46.933 38.4 85.333 85.333 85.333s85.333-38.4 85.333-85.333-38.4-85.333-85.333-85.333h-85.333v85.333zM341.333 170.667c0-46.933-38.4-85.333-85.333-85.333s-85.333 38.4-85.333 85.333 38.4 85.333 85.333 85.333h85.333v-85.333zM341.333 597.334h-85.333c-46.933 0-85.333 38.4-85.333 85.333s38.4 85.333 85.333 85.333 85.333-38.4 85.333-85.333v-85.333zM597.333 341.334h-170.667v170.667h170.667v-170.667zM768 85.334c-46.933 0-85.333 38.4-85.333 85.333v85.333h85.333c46.933 0 85.333-38.4 85.333-85.333s-38.4-85.333-85.333-85.333z" />
<glyph unicode="&#x231a;" glyph-name="watch" d="M853.333 426.667c0 98.133-42.667 183.467-106.667 247.467l-12.8 149.333c-8.533 64-59.733 115.2-128 115.2 0 0 0 0 0 0h-187.733c-64 0-119.467-51.2-128-115.2l-12.8-149.333c-64-59.733-106.667-149.333-106.667-247.467s42.667-187.733 106.667-247.467l12.8-149.333c8.533-64 64-115.2 128-115.2 0 0 0 0 0 0h183.467c0 0 0 0 0 0 68.267 0 119.467 51.2 128 115.2l12.8 145.067c68.267 64 110.933 153.6 110.933 251.733zM375.467 814.934c0 21.333 21.333 38.4 42.667 38.4h187.733c21.333 0 42.667-17.067 42.667-38.4l8.533-76.8c-46.933 17.067-93.867 29.867-145.067 29.867s-98.133-12.8-140.8-29.867l4.267 76.8zM256 426.667c0 140.8 115.2 256 256 256s256-115.2 256-256-115.2-256-256-256-256 115.2-256 256zM648.533 38.4c0-21.333-21.333-38.4-42.667-38.4 0 0 0 0 0 0h-187.733c0 0 0 0 0 0-21.333 0-38.4 17.067-42.667 38.4l-8.533 76.8c42.667-21.333 89.6-29.867 140.8-29.867s98.133 12.8 140.8 29.867v-76.8zM546.133 332.8c8.533-8.533 21.333-12.8 29.867-12.8s21.333 4.267 29.867 12.8c17.067 17.067 17.067 42.667 0 59.733l-51.2 51.2v110.933c0 25.6-17.067 42.667-42.667 42.667s-42.667-17.067-42.667-42.667v-128c0-12.8 4.267-21.333 12.8-29.867l64-64z" />
<glyph unicode="&#x2347;" glyph-name="skip-back" d="M827.733 806.4c-12.8 8.533-34.133 4.267-46.933-4.267l-426.667-341.333c-8.533-8.533-12.8-21.333-12.8-34.133s4.267-25.6 17.067-34.133l426.667-341.333c8.533-4.267 17.067-8.533 25.6-8.533 4.267 0 12.8 0 17.067 4.267 12.8 8.533 25.6 21.333 25.6 38.4v682.667c0 17.067-8.533 29.867-25.6 38.4zM768 174.934l-315.733 251.733 315.733 251.733v-503.467zM213.333 768c-25.6 0-42.667-17.067-42.667-42.667v-597.333c0-25.6 17.067-42.667 42.667-42.667s42.667 17.067 42.667 42.667v597.333c0 25.6-17.067 42.667-42.667 42.667z" />
<glyph unicode="&#x2348;" glyph-name="skip-forward" d="M238.933 802.134c-12.8 8.533-29.867 12.8-42.667 4.267-17.067-8.533-25.6-21.333-25.6-38.4v-682.667c0-17.067 8.533-29.867 25.6-38.4 4.267-4.267 12.8-4.267 17.067-4.267 8.533 0 17.067 4.267 25.6 8.533l426.667 341.333c8.533 8.533 17.067 21.333 17.067 34.133s-4.267 25.6-17.067 34.133l-426.667 341.333zM256 174.934v503.467l315.733-251.733-315.733-251.733zM810.667 768c-25.6 0-42.667-17.067-42.667-42.667v-597.333c0-25.6 17.067-42.667 42.667-42.667s42.667 17.067 42.667 42.667v597.333c0 25.6-17.067 42.667-42.667 42.667z" />
<glyph unicode="&#x234c;" glyph-name="sliders" d="M170.667 469.334c25.6 0 42.667 17.067 42.667 42.667v298.667c0 25.6-17.067 42.667-42.667 42.667s-42.667-17.067-42.667-42.667v-298.667c0-25.6 17.067-42.667 42.667-42.667zM512 469.334c-25.6 0-42.667-17.067-42.667-42.667v-384c0-25.6 17.067-42.667 42.667-42.667s42.667 17.067 42.667 42.667v384c0 25.6-17.067 42.667-42.667 42.667zM853.333 384c25.6 0 42.667 17.067 42.667 42.667v384c0 25.6-17.067 42.667-42.667 42.667s-42.667-17.067-42.667-42.667v-384c0-25.6 17.067-42.667 42.667-42.667zM298.667 384h-256c-25.6 0-42.667-17.067-42.667-42.667s17.067-42.667 42.667-42.667h85.333v-256c0-25.6 17.067-42.667 42.667-42.667s42.667 17.067 42.667 42.667v256h85.333c25.6 0 42.667 17.067 42.667 42.667s-17.067 42.667-42.667 42.667zM640 640h-85.333v170.667c0 25.6-17.067 42.667-42.667 42.667s-42.667-17.067-42.667-42.667v-170.667h-85.333c-25.6 0-42.667-17.067-42.667-42.667s17.067-42.667 42.667-42.667h256c25.6 0 42.667 17.067 42.667 42.667s-17.067 42.667-42.667 42.667zM981.333 298.667h-256c-25.6 0-42.667-17.067-42.667-42.667s17.067-42.667 42.667-42.667h85.333v-170.667c0-25.6 17.067-42.667 42.667-42.667s42.667 17.067 42.667 42.667v170.667h85.333c25.6 0 42.667 17.067 42.667 42.667s-17.067 42.667-42.667 42.667z" />
<glyph unicode="&#x2353;" glyph-name="upload-cloud" d="M994.133 465.067c-46.933 81.067-132.267 132.267-226.133 132.267h-21.333c-64 187.733-264.533 294.4-456.533 243.2-102.4-25.6-183.467-89.6-238.933-174.933s-68.267-192-42.667-290.133c17.067-59.733 42.667-110.933 85.333-157.867 17.067-17.067 42.667-21.333 59.733-4.267s21.333 42.667 4.267 59.733c-29.867 34.133-55.467 76.8-64 123.733-21.333 76.8-8.533 153.6 34.133 226.133 38.4 68.267 106.667 119.467 183.467 136.533 157.867 42.667 324.267-55.467 362.667-213.333 4.267-17.067 21.333-29.867 42.667-29.867h51.2c64 0 119.467-34.133 149.333-89.6 21.333-38.4 25.6-85.333 12.8-128s-42.667-81.067-81.067-102.4c-21.333-12.8-29.867-38.4-17.067-59.733 8.533-12.8 21.333-21.333 38.4-21.333 8.533 0 12.8 0 21.333 4.267 59.733 34.133 102.4 85.333 123.733 153.6 17.067 59.733 8.533 132.267-21.333 192zM541.867 456.534c-4.267 4.267-8.533 8.533-12.8 8.533-8.533 4.267-21.333 4.267-34.133 0-4.267-4.267-8.533-4.267-12.8-8.533l-170.667-170.667c-17.067-17.067-17.067-42.667 0-59.733s42.667-17.067 59.733 0l98.133 98.133v-281.6c0-25.6 17.067-42.667 42.667-42.667s42.667 17.067 42.667 42.667v281.6l98.133-98.133c8.533-8.533 21.333-12.8 29.867-12.8s21.333 4.267 29.867 12.8c17.067 17.067 17.067 42.667 0 59.733l-170.667 170.667z" />
<glyph unicode="&#x23f8;" glyph-name="pause-circle" d="M512 896c-260.267 0-469.333-209.067-469.333-469.333s209.067-469.333 469.333-469.333 469.333 209.067 469.333 469.333-209.067 469.333-469.333 469.333zM512 42.667c-213.333 0-384 170.667-384 384s170.667 384 384 384c213.333 0 384-170.667 384-384s-170.667-384-384-384zM426.667 597.334c-25.6 0-42.667-17.067-42.667-42.667v-256c0-25.6 17.067-42.667 42.667-42.667s42.667 17.067 42.667 42.667v256c0 25.6-17.067 42.667-42.667 42.667zM597.333 597.334c-25.6 0-42.667-17.067-42.667-42.667v-256c0-25.6 17.067-42.667 42.667-42.667s42.667 17.067 42.667 42.667v256c0 25.6-17.067 42.667-42.667 42.667z" />
<glyph unicode="&#x251c;" glyph-name="git-merge" d="M768 341.334c-76.8 0-145.067-55.467-162.133-128-157.867 17.067-285.867 145.067-302.933 302.933 72.533 21.333 128 85.333 128 162.133 0 93.867-76.8 170.667-170.667 170.667s-174.933-72.533-174.933-166.4c0-81.067 55.467-145.067 128-166.4v-473.6c0-25.6 17.067-42.667 42.667-42.667s42.667 17.067 42.667 42.667v256c72.533-93.867 179.2-157.867 302.933-170.667 17.067-72.533 85.333-132.267 166.4-132.267 93.867 0 170.667 76.8 170.667 170.667s-76.8 174.933-170.667 174.933zM170.667 682.667c0 46.933 38.4 85.333 85.333 85.333s85.333-38.4 85.333-85.333-38.4-85.333-85.333-85.333-85.333 38.4-85.333 85.333zM768 85.334c-46.933 0-85.333 38.4-85.333 85.333s38.4 85.333 85.333 85.333 85.333-38.4 85.333-85.333-38.4-85.333-85.333-85.333z" />
<glyph unicode="&#x2523;" glyph-name="git-branch" d="M938.667 682.667c0 93.867-76.8 170.667-170.667 170.667s-170.667-76.8-170.667-170.667c0-76.8 55.467-145.067 128-162.133-17.067-157.867-145.067-285.867-302.933-302.933-17.067 59.733-64 106.667-119.467 119.467v473.6c0 25.6-17.067 42.667-42.667 42.667s-46.933-17.067-46.933-42.667v-473.6c-72.533-17.067-128-85.333-128-166.4 0-93.867 76.8-170.667 170.667-170.667 81.067 0 145.067 55.467 166.4 128 204.8 17.067 371.2 183.467 388.267 388.267 72.533 21.333 128 85.333 128 166.4zM256 85.334c-46.933 0-85.333 38.4-85.333 85.333s38.4 85.333 85.333 85.333 85.333-38.4 85.333-85.333-38.4-85.333-85.333-85.333zM768 597.334c-46.933 0-85.333 38.4-85.333 85.333s38.4 85.333 85.333 85.333 85.333-38.4 85.333-85.333-38.4-85.333-85.333-85.333z" />
<glyph unicode="&#x2533;" glyph-name="git-commit" d="M981.333 469.334h-256c0 0-4.267 0-4.267 0-21.333 98.133-106.667 170.667-209.067 170.667s-187.733-72.533-209.067-170.667c0 0-4.267 0-4.267 0h-256c-25.6 0-42.667-17.067-42.667-42.667s17.067-42.667 42.667-42.667h256c0 0 4.267 0 4.267 0 21.333-98.133 106.667-170.667 209.067-170.667s187.733 72.533 209.067 170.667c0 0 4.267 0 4.267 0h256c25.6 0 42.667 17.067 42.667 42.667s-21.333 42.667-42.667 42.667zM512 298.667c-72.533 0-128 55.467-128 128s55.467 128 128 128 128-55.467 128-128-55.467-128-128-128z" />
<glyph unicode="&#x2537;" glyph-name="terminal" d="M456.533 499.2l-256 256c-17.067 17.067-42.667 17.067-59.733 0s-17.067-42.667 0-59.733l226.133-226.133-226.133-226.133c-17.067-17.067-17.067-42.667 0-59.733 8.533-8.533 17.067-12.8 29.867-12.8s21.333 4.267 29.867 12.8l256 256c17.067 17.067 17.067 42.667 0 59.733zM853.333 170.667h-341.333c-25.6 0-42.667-17.067-42.667-42.667s17.067-42.667 42.667-42.667h341.333c25.6 0 42.667 17.067 42.667 42.667s-17.067 42.667-42.667 42.667z" />
<glyph unicode="&#x2560;" glyph-name="git-pull-request" d="M810.667 337.067v260.267c0 72.533-55.467 128-128 128h-128c-25.6 0-42.667-17.067-42.667-42.667s17.067-42.667 42.667-42.667h128c25.6 0 42.667-17.067 42.667-42.667v-260.267c-72.533-17.067-128-85.333-128-166.4 0-93.867 76.8-170.667 170.667-170.667s170.667 76.8 170.667 170.667c0 81.067-55.467 145.067-128 166.4zM768 85.334c-46.933 0-85.333 38.4-85.333 85.333s38.4 85.333 85.333 85.333 85.333-38.4 85.333-85.333-38.4-85.333-85.333-85.333zM256 853.334c-93.867 0-170.667-76.8-170.667-170.667 0-81.067 55.467-145.067 128-166.4v-473.6c0-25.6 17.067-42.667 42.667-42.667s42.667 17.067 42.667 42.667v473.6c72.533 17.067 128 85.333 128 166.4 0 93.867-76.8 170.667-170.667 170.667zM256 597.334c-46.933 0-85.333 38.4-85.333 85.333s38.4 85.333 85.333 85.333 85.333-38.4 85.333-85.333-38.4-85.333-85.333-85.333z" />
<glyph unicode="&#x2573;" glyph-name="x" d="M571.733 426.667l226.133 226.133c17.067 17.067 17.067 42.667 0 59.733s-42.667 17.067-59.733 0l-226.133-226.133-226.133 226.133c-17.067 17.067-42.667 17.067-59.733 0s-17.067-42.667 0-59.733l226.133-226.133-226.133-226.133c-17.067-17.067-17.067-42.667 0-59.733 8.533-8.533 17.067-12.8 29.867-12.8s21.333 4.267 29.867 12.8l226.133 226.133 226.133-226.133c8.533-8.533 21.333-12.8 29.867-12.8s21.333 4.267 29.867 12.8c17.067 17.067 17.067 42.667 0 59.733l-226.133 226.133z" />
<glyph unicode="&#x258e;" glyph-name="sidebar" d="M810.667 853.334h-597.333c-72.533 0-128-55.467-128-128v-597.333c0-72.533 55.467-128 128-128h597.333c72.533 0 128 55.467 128 128v597.333c0 72.533-55.467 128-128 128zM170.667 128v597.333c0 25.6 17.067 42.667 42.667 42.667h128v-682.667h-128c-25.6 0-42.667 17.067-42.667 42.667zM853.333 128c0-25.6-17.067-42.667-42.667-42.667h-384v682.667h384c25.6 0 42.667-17.067 42.667-42.667v-597.333z" />
<glyph unicode="&#x25a2;" glyph-name="toggle-left" d="M682.667 768h-341.333c-187.733 0-341.333-153.6-341.333-341.333s153.6-341.333 341.333-341.333h341.333c187.733 0 341.333 153.6 341.333 341.333s-153.6 341.333-341.333 341.333zM682.667 170.667h-341.333c-140.8 0-256 115.2-256 256s115.2 256 256 256h341.333c140.8 0 256-115.2 256-256s-115.2-256-256-256zM341.333 597.334c-93.867 0-170.667-76.8-170.667-170.667s76.8-170.667 170.667-170.667 170.667 76.8 170.667 170.667c0 93.867-76.8 170.667-170.667 170.667zM341.333 341.334c-46.933 0-85.333 38.4-85.333 85.333s38.4 85.333 85.333 85.333 85.333-38.4 85.333-85.333c0-46.933-38.4-85.333-85.333-85.333z" />
<glyph unicode="&#x25a3;" glyph-name="toggle-right" d="M682.667 768h-341.333c-187.733 0-341.333-153.6-341.333-341.333s153.6-341.333 341.333-341.333h341.333c187.733 0 341.333 153.6 341.333 341.333s-153.6 341.333-341.333 341.333zM682.667 170.667h-341.333c-140.8 0-256 115.2-256 256s115.2 256 256 256h341.333c140.8 0 256-115.2 256-256s-115.2-256-256-256zM682.667 597.334c-93.867 0-170.667-76.8-170.667-170.667s76.8-170.667 170.667-170.667 170.667 76.8 170.667 170.667c0 93.867-76.8 170.667-170.667 170.667zM682.667 341.334c-46.933 0-85.333 38.4-85.333 85.333s38.4 85.333 85.333 85.333 85.333-38.4 85.333-85.333c0-46.933-38.4-85.333-85.333-85.333z" />
<glyph unicode="&#x25a4;" glyph-name="grid" d="M426.667 853.334h-298.667c-25.6 0-42.667-17.067-42.667-42.667v-298.667c0-25.6 17.067-42.667 42.667-42.667h298.667c25.6 0 42.667 17.067 42.667 42.667v298.667c0 25.6-17.067 42.667-42.667 42.667zM384 554.667h-213.333v213.333h213.333v-213.333zM896 853.334h-298.667c-25.6 0-42.667-17.067-42.667-42.667v-298.667c0-25.6 17.067-42.667 42.667-42.667h298.667c25.6 0 42.667 17.067 42.667 42.667v298.667c0 25.6-17.067 42.667-42.667 42.667zM853.333 554.667h-213.333v213.333h213.333v-213.333zM896 384h-298.667c-25.6 0-42.667-17.067-42.667-42.667v-298.667c0-25.6 17.067-42.667 42.667-42.667h298.667c25.6 0 42.667 17.067 42.667 42.667v298.667c0 25.6-17.067 42.667-42.667 42.667zM853.333 85.334h-213.333v213.333h213.333v-213.333zM426.667 384h-298.667c-25.6 0-42.667-17.067-42.667-42.667v-298.667c0-25.6 17.067-42.667 42.667-42.667h298.667c25.6 0 42.667 17.067 42.667 42.667v298.667c0 25.6-17.067 42.667-42.667 42.667zM384 85.334h-213.333v213.333h213.333v-213.333z" />
<glyph unicode="&#x25ad;" glyph-name="server" d="M853.333 896h-682.667c-72.533 0-128-55.467-128-128v-170.667c0-72.533 55.467-128 128-128h682.667c72.533 0 128 55.467 128 128v170.667c0 72.533-55.467 128-128 128zM896 597.334c0-25.6-17.067-42.667-42.667-42.667h-682.667c-25.6 0-42.667 17.067-42.667 42.667v170.667c0 25.6 17.067 42.667 42.667 42.667h682.667c25.6 0 42.667-17.067 42.667-42.667v-170.667zM853.333 384h-682.667c-72.533 0-128-55.467-128-128v-170.667c0-72.533 55.467-128 128-128h682.667c72.533 0 128 55.467 128 128v170.667c0 72.533-55.467 128-128 128zM896 85.334c0-25.6-17.067-42.667-42.667-42.667h-682.667c-25.6 0-42.667 17.067-42.667 42.667v170.667c0 25.6 17.067 42.667 42.667 42.667h682.667c25.6 0 42.667-17.067 42.667-42.667v-170.667zM226.133 712.534c-8.533-8.533-12.8-17.067-12.8-29.867s4.267-21.333 12.8-29.867c8.533-8.533 17.067-12.8 29.867-12.8s21.333 4.267 29.867 12.8c8.533 8.533 12.8 17.067 12.8 29.867s-4.267 21.333-12.8 29.867c-17.067 17.067-42.667 17.067-59.733 0zM226.133 200.534c-8.533-8.533-12.8-17.067-12.8-29.867s4.267-21.333 12.8-29.867c8.533-8.533 17.067-12.8 29.867-12.8s21.333 4.267 29.867 12.8c8.533 8.533 12.8 17.067 12.8 29.867s-4.267 21.333-12.8 29.867c-17.067 17.067-42.667 17.067-59.733 0z" />
<glyph unicode="&#x25b3;" glyph-name="triangle" d="M981.333 192l-358.4 605.867c-17.067 29.867-46.933 51.2-81.067 59.733s-68.267 4.267-98.133-12.8c-17.067-8.533-34.133-25.6-42.667-42.667 0 0 0 0 0 0l-358.4-610.133c-34.133-59.733-12.8-140.8 46.933-174.933 17.067-12.8 38.4-17.067 59.733-17.067h725.333c34.133 0 68.267 12.8 89.6 38.4 25.6 25.6 38.4 55.467 38.4 89.6-4.267 21.333-8.533 46.933-21.333 64zM904.533 98.134c-8.533-8.533-21.333-12.8-29.867-12.8h-725.333c-8.533 0-12.8 0-21.333 4.267-21.333 12.8-25.6 38.4-17.067 59.733l362.667 601.6c4.267 4.267 8.533 12.8 12.8 12.8 21.333 12.8 46.933 4.267 59.733-12.8l362.667-601.6c4.267-4.267 4.267-12.8 4.267-21.333 4.267-12.8-4.267-21.333-8.533-29.867z" />
<glyph unicode="&#x25b6;" glyph-name="play-circle" d="M512 896c-260.267 0-469.333-209.067-469.333-469.333s209.067-469.333 469.333-469.333 469.333 209.067 469.333 469.333-209.067 469.333-469.333 469.333zM512 42.667c-213.333 0-384 170.667-384 384s170.667 384 384 384c213.333 0 384-170.667 384-384s-170.667-384-384-384zM708.267 460.8l-256 170.667c-12.8 8.533-29.867 8.533-42.667 0-17.067-4.267-25.6-17.067-25.6-34.133v-341.333c0-17.067 8.533-29.867 21.333-38.4 8.533-4.267 12.8-4.267 21.333-4.267s17.067 4.267 25.6 8.533l256 170.667c12.8 8.533 17.067 21.333 17.067 34.133s-8.533 25.6-17.067 34.133zM469.333 337.067v179.2l136.533-89.6-136.533-89.6z" />
<glyph unicode="&#x25ba;" glyph-name="play" d="M832 460.8l-597.333 384c-12.8 8.533-29.867 8.533-42.667 0-12.8-4.267-21.333-17.067-21.333-34.133v-768c0-17.067 8.533-29.867 21.333-38.4 8.533-4.267 12.8-4.267 21.333-4.267s17.067 4.267 21.333 8.533l597.333 384c12.8 8.533 21.333 21.333 21.333 34.133s-8.533 29.867-21.333 34.133zM256 119.467v614.4l477.867-307.2-477.867-307.2z" />
<glyph unicode="&#x25eb;" glyph-name="pause" d="M426.667 810.667h-170.667c-25.6 0-42.667-17.067-42.667-42.667v-682.667c0-25.6 17.067-42.667 42.667-42.667h170.667c25.6 0 42.667 17.067 42.667 42.667v682.667c0 25.6-17.067 42.667-42.667 42.667zM384 128h-85.333v597.333h85.333v-597.333zM768 810.667h-170.667c-25.6 0-42.667-17.067-42.667-42.667v-682.667c0-25.6 17.067-42.667 42.667-42.667h170.667c25.6 0 42.667 17.067 42.667 42.667v682.667c0 25.6-17.067 42.667-42.667 42.667zM725.333 128h-85.333v597.333h85.333v-597.333z" />
<glyph unicode="&#x2600;" glyph-name="sun" d="M512 682.667c-140.8 0-256-115.2-256-256s115.2-256 256-256 256 115.2 256 256-115.2 256-256 256zM512 256c-93.867 0-170.667 76.8-170.667 170.667s76.8 170.667 170.667 170.667c93.867 0 170.667-76.8 170.667-170.667s-76.8-170.667-170.667-170.667zM512 768c25.6 0 42.667 17.067 42.667 42.667v85.333c0 25.6-17.067 42.667-42.667 42.667s-42.667-17.067-42.667-42.667v-85.333c0-25.6 17.067-42.667 42.667-42.667zM512 85.334c-25.6 0-42.667-17.067-42.667-42.667v-85.333c0-25.6 17.067-42.667 42.667-42.667s42.667 17.067 42.667 42.667v85.333c0 25.6-17.067 42.667-42.667 42.667zM209.067 669.867c8.533-8.533 21.333-12.8 29.867-12.8s21.333 4.267 29.867 12.8c17.067 17.067 17.067 42.667 0 59.733l-59.733 59.733c-17.067 17.067-42.667 17.067-59.733 0s-17.067-42.667 0-59.733l59.733-59.733zM814.933 183.467c-17.067 17.067-42.667 17.067-59.733 0s-17.067-42.667 0-59.733l59.733-59.733c8.533-8.533 21.333-12.8 29.867-12.8s21.333 4.267 29.867 12.8c17.067 17.067 17.067 42.667 0 59.733l-59.733 59.733zM170.667 426.667c0 25.6-17.067 42.667-42.667 42.667h-85.333c-25.6 0-42.667-17.067-42.667-42.667s17.067-42.667 42.667-42.667h85.333c25.6 0 42.667 17.067 42.667 42.667zM981.333 469.334h-85.333c-25.6 0-42.667-17.067-42.667-42.667s17.067-42.667 42.667-42.667h85.333c25.6 0 42.667 17.067 42.667 42.667s-17.067 42.667-42.667 42.667zM209.067 183.467l-59.733-59.733c-17.067-17.067-17.067-42.667 0-59.733 8.533-8.533 21.333-12.8 29.867-12.8s21.333 4.267 29.867 12.8l59.733 59.733c17.067 17.067 17.067 42.667 0 59.733s-42.667 17.067-59.733 0zM785.067 657.067c12.8 0 21.333 4.267 29.867 12.8l59.733 59.733c17.067 17.067 17.067 42.667 0 59.733s-42.667 17.067-59.733 0l-59.733-59.733c-17.067-17.067-17.067-42.667 0-59.733 4.267-8.533 17.067-12.8 29.867-12.8z" />
<glyph unicode="&#x2601;" glyph-name="download-cloud" d="M652.8 243.2l-98.133-98.133v281.6c0 25.6-17.067 42.667-42.667 42.667s-42.667-17.067-42.667-42.667v-281.6l-98.133 98.133c-17.067 17.067-42.667 17.067-59.733 0s-17.067-42.667 0-59.733l170.667-170.667c4.267-4.267 8.533-8.533 12.8-8.533 4.267-4.267 12.8-4.267 17.067-4.267s12.8 0 17.067 4.267c4.267 4.267 8.533 4.267 12.8 8.533l170.667 170.667c17.067 17.067 17.067 42.667 0 59.733s-42.667 17.067-59.733 0zM977.067 490.667c-46.933 64-123.733 106.667-209.067 106.667 0 0 0 0 0 0h-21.333c-64 187.733-264.533 294.4-456.533 243.2-102.4-25.6-183.467-85.333-238.933-174.933-51.2-89.6-68.267-192-42.667-290.133 17.067-59.733 42.667-115.2 85.333-157.867 17.067-17.067 42.667-21.333 59.733-4.267s21.333 42.667 4.267 59.733c-29.867 34.133-55.467 76.8-64 123.733-21.333 76.8-8.533 157.867 34.133 226.133s106.667 119.467 183.467 136.533c157.867 42.667 324.267-55.467 362.667-213.333 4.267-17.067 21.333-34.133 42.667-34.133h51.2c0 0 0 0 0 0 55.467 0 106.667-25.6 140.8-72.533 25.6-38.4 38.4-81.067 29.867-128s-34.133-85.333-68.267-110.933c-21.333-12.8-25.6-38.4-8.533-59.733 8.533-12.8 21.333-17.067 34.133-17.067 8.533 0 17.067 4.267 25.6 8.533 55.467 38.4 93.867 98.133 106.667 166.4s-12.8 132.267-51.2 192z" />
<glyph unicode="&#x2602;" glyph-name="umbrella" d="M465.067 891.734c-247.467-21.333-439.467-217.6-465.067-460.8 0-12.8 4.267-25.6 12.8-34.133 4.267-8.533 17.067-12.8 29.867-12.8h426.667v-256c0-93.867 76.8-170.667 170.667-170.667s170.667 76.8 170.667 170.667c0 25.6-17.067 42.667-42.667 42.667s-42.667-17.067-42.667-42.667c0-46.933-38.4-85.333-85.333-85.333s-85.333 38.4-85.333 85.333v256h426.667c12.8 0 25.6 4.267 29.867 12.8s12.8 21.333 12.8 34.133c-25.6 281.6-277.333 490.667-558.933 460.8zM512 469.334h-418.133c34.133 183.467 187.733 320 375.467 341.333 217.6 21.333 418.133-128 460.8-341.333h-418.133z" />
<glyph unicode="&#x2605;" glyph-name="star" d="M981.333 554.667c-4.267 17.067-17.067 25.6-34.133 29.867l-273.067 38.4-123.733 247.467c-12.8 29.867-64 29.867-76.8 0l-123.733-243.2-268.8-42.667c-17.067 0-29.867-12.8-38.4-29.867-4.267-17.067 0-34.133 12.8-42.667l196.267-192-46.933-273.067c-4.267-17.067 4.267-34.133 17.067-42.667s29.867-12.8 46.933-4.267l243.2 128 243.2-128c8.533 0 12.8 0 21.333 0s17.067 4.267 25.6 8.533c12.8 8.533 21.333 25.6 17.067 42.667l-46.933 273.067 196.267 192c12.8 8.533 17.067 25.6 12.8 38.4zM695.467 366.934c-8.533-12.8-12.8-25.6-12.8-38.4l34.133-209.067-187.733 98.133c-12.8 8.533-25.6 8.533-38.4 0l-187.733-98.133 38.4 209.067c0 12.8-4.267 25.6-12.8 38.4l-153.6 145.067 209.067 29.867c12.8 0 25.6 12.8 34.133 21.333l93.867 192 93.867-187.733c4.267-12.8 17.067-21.333 34.133-21.333l209.067-29.867-153.6-149.333z" />
<glyph unicode="&#x260e;" glyph-name="phone" d="M870.4 345.6c-38.4 4.267-76.8 12.8-110.933 25.6-46.933 17.067-98.133 4.267-136.533-29.867l-29.867-29.867c-76.8 51.2-145.067 115.2-196.267 196.267l29.867 29.867c34.133 34.133 46.933 89.6 29.867 136.533-12.8 34.133-21.333 72.533-25.6 110.933-8.533 64-64 110.933-128 110.933 0 0 0 0 0 0h-128c-4.267 0-8.533 0-12.8 0-34.133-4.267-64-21.333-85.333-46.933s-29.867-59.733-29.867-93.867c12.8-136.533 64-273.067 136.533-388.267 68.267-106.667 162.133-200.533 268.8-268.8 115.2-76.8 251.733-123.733 388.267-136.533 4.267 0 8.533 0 12.8 0 0 0 0 0 0 0 34.133 0 68.267 12.8 89.6 38.4s38.4 55.467 38.4 89.6v128c0 64-46.933 119.467-110.933 128zM896 217.6v-128c0-12.8-4.267-21.333-12.8-29.867s-17.067-12.8-34.133-12.8c-123.733 12.8-243.2 55.467-349.867 123.733-98.133 59.733-179.2 145.067-243.2 243.2-68.267 106.667-110.933 226.133-123.733 349.867 0 12.8 4.267 21.333 8.533 29.867 8.533 8.533 21.333 17.067 34.133 17.067h128c0 0 0 0 0 0 21.333 0 38.4-17.067 42.667-38.4 4.267-42.667 17.067-89.6 34.133-128 4.267-17.067 0-34.133-8.533-46.933l-55.467-51.2c-12.8-12.8-17.067-34.133-8.533-51.2 64-115.2 157.867-209.067 273.067-273.067 17.067-8.533 38.4-8.533 51.2 8.533l55.467 55.467c12.8 12.8 29.867 17.067 46.933 8.533 42.667-17.067 85.333-25.6 128-34.133 17.067-4.267 34.133-21.333 34.133-42.667 0 0 0 0 0 0z" />
<glyph unicode="&#x2611;" glyph-name="check-square" d="M968.533 797.867c-17.067 17.067-42.667 17.067-59.733 0l-396.8-396.8-98.133 98.133c-17.067 17.067-42.667 17.067-59.733 0s-17.067-42.667 0-59.733l128-128c8.533-8.533 21.333-12.8 29.867-12.8s21.333 4.267 29.867 12.8l426.667 426.667c17.067 17.067 17.067 42.667 0 59.733zM896 469.334c-25.6 0-42.667-17.067-42.667-42.667v-298.667c0-25.6-17.067-42.667-42.667-42.667h-597.333c-25.6 0-42.667 17.067-42.667 42.667v597.333c0 25.6 17.067 42.667 42.667 42.667h469.333c25.6 0 42.667 17.067 42.667 42.667s-17.067 42.667-42.667 42.667h-469.333c-72.533 0-128-55.467-128-128v-597.333c0-72.533 55.467-128 128-128h597.333c72.533 0 128 55.467 128 128v298.667c0 25.6-17.067 42.667-42.667 42.667z" />
<glyph unicode="&#x2616;" glyph-name="octagon" d="M968.533 631.467l-251.733 251.733c-4.267 8.533-17.067 12.8-29.867 12.8h-349.867c-12.8 0-25.6-4.267-29.867-12.8l-251.733-251.733c-8.533-4.267-12.8-17.067-12.8-29.867v-354.133c0-12.8 4.267-21.333 12.8-29.867l251.733-251.733c4.267-4.267 17.067-8.533 29.867-8.533h354.133c12.8 0 21.333 4.267 29.867 12.8l251.733 251.733c8.533 8.533 12.8 17.067 12.8 29.867v349.867c-4.267 12.8-8.533 25.6-17.067 29.867zM896 268.8l-226.133-226.133h-315.733l-226.133 226.133v315.733l226.133 226.133h320l221.867-226.133v-315.733z" />
<glyph unicode="&#x2630;" glyph-name="menu" d="M896 469.334h-768c-25.6 0-42.667-17.067-42.667-42.667s17.067-42.667 42.667-42.667h768c25.6 0 42.667 17.067 42.667 42.667s-17.067 42.667-42.667 42.667zM128 640h768c25.6 0 42.667 17.067 42.667 42.667s-17.067 42.667-42.667 42.667h-768c-25.6 0-42.667-17.067-42.667-42.667s17.067-42.667 42.667-42.667zM896 213.334h-768c-25.6 0-42.667-17.067-42.667-42.667s17.067-42.667 42.667-42.667h768c25.6 0 42.667 17.067 42.667 42.667s-17.067 42.667-42.667 42.667z" />
<glyph unicode="&#x263c;" glyph-name="crosshair" d="M512 896c-260.267 0-469.333-209.067-469.333-469.333s209.067-469.333 469.333-469.333 469.333 209.067 469.333 469.333-209.067 469.333-469.333 469.333zM554.667 46.934v123.733c0 25.6-17.067 42.667-42.667 42.667s-42.667-17.067-42.667-42.667v-123.733c-179.2 21.333-320 162.133-337.067 337.067h123.733c25.6 0 42.667 17.067 42.667 42.667s-17.067 42.667-42.667 42.667h-123.733c17.067 179.2 157.867 320 337.067 337.067v-123.733c0-25.6 17.067-42.667 42.667-42.667s42.667 17.067 42.667 42.667v123.733c179.2-21.333 320-162.133 337.067-337.067h-123.733c-25.6 0-42.667-17.067-42.667-42.667s17.067-42.667 42.667-42.667h123.733c-17.067-179.2-157.867-320-337.067-337.067z" />
<glyph unicode="&#x2665;" glyph-name="heart" d="M917.333 772.267v0c-51.2 51.2-119.467 81.067-192 81.067v0c-72.533 0-145.067-29.867-196.267-81.067 0 0 0 0 0 0l-17.067-17.067-17.067 17.067c-51.2 51.2-119.467 81.067-196.267 81.067-72.533 0-140.8-29.867-192-81.067s-85.333-123.733-85.333-196.267 29.867-145.067 81.067-196.267l375.467-375.467c8.533-8.533 17.067-12.8 29.867-12.8s21.333 4.267 29.867 12.8l375.467 375.467c115.2 106.667 115.2 285.867 4.267 392.533zM857.6 439.467l-345.6-345.6-345.6 345.6c-76.8 76.8-76.8 196.267 0 273.067 34.133 38.4 85.333 55.467 132.267 55.467 51.2 0 98.133-17.067 136.533-55.467l46.933-46.933c17.067-17.067 42.667-17.067 59.733 0l42.667 46.933c0 0 0 0 0 0 38.4 34.133 85.333 55.467 140.8 55.467 0 0 0 0 0 0 51.2 0 98.133-21.333 136.533-55.467v0c34.133-38.4 55.467-85.333 55.467-136.533s-21.333-98.133-59.733-136.533z" />
<glyph unicode="&#x2693;" glyph-name="anchor" d="M938.667 469.334h-128c-25.6 0-42.667-17.067-42.667-42.667s17.067-42.667 42.667-42.667h81.067c-21.333-179.2-162.133-320-337.067-337.067v512c72.533 17.067 128 85.333 128 166.4 0 93.867-76.8 170.667-170.667 170.667s-170.667-76.8-170.667-170.667c0-81.067 55.467-145.067 128-166.4v-516.267c-179.2 21.333-320 162.133-337.067 337.067h81.067c25.6 0 42.667 17.067 42.667 42.667s-17.067 42.667-42.667 42.667h-128c-25.6 0-42.667-17.067-42.667-42.667 0-260.267 209.067-469.333 469.333-469.333s469.333 209.067 469.333 469.333c0 29.867-17.067 46.933-42.667 46.933zM426.667 725.334c0 46.933 38.4 85.333 85.333 85.333s85.333-38.4 85.333-85.333-38.4-85.333-85.333-85.333c-46.933 0-85.333 38.4-85.333 85.333z" />
<glyph unicode="&#x2699;" glyph-name="settings" d="M512 597.334c-93.867 0-170.667-76.8-170.667-170.667s76.8-170.667 170.667-170.667c93.867 0 170.667 76.8 170.667 170.667s-76.8 170.667-170.667 170.667zM512 341.334c-46.933 0-85.333 38.4-85.333 85.333s38.4 85.333 85.333 85.333c46.933 0 85.333-38.4 85.333-85.333s-38.4-85.333-85.333-85.333zM866.133 281.6c4.267 8.533 12.8 17.067 29.867 17.067 72.533 0 128 55.467 128 128s-55.467 128-128 128h-8.533c-8.533 0-17.067 4.267-21.333 12.8 0 4.267 0 4.267-4.267 8.533-4.267 8.533-4.267 21.333 8.533 34.133 51.2 51.2 51.2 132.267 0 179.2v0c0 0 0 0 0 0-25.6 25.6-55.467 38.4-89.6 38.4 0 0 0 0 0 0-34.133 0-68.267-12.8-93.867-38.4-8.533-8.533-21.333-8.533-29.867-4.267-8.533 0-17.067 12.8-17.067 25.6 0 72.533-55.467 128-128 128s-128-55.467-128-128v-8.533c0-8.533-4.267-17.067-12.8-21.333-4.267 0-4.267 0-8.533-4.267-8.533-4.267-21.333 0-34.133 8.533-51.2 51.2-132.267 51.2-179.2 0-51.2-51.2-51.2-132.267 4.267-183.467 8.533-8.533 8.533-21.333 4.267-34.133-4.267-8.533-17.067-17.067-29.867-17.067-72.533 0-128-55.467-128-128s55.467-128 128-128h8.533c12.8 0 21.333-8.533 25.6-17.067s4.267-21.333-8.533-34.133c-25.6-25.6-38.4-55.467-38.4-89.6s12.8-64 38.4-89.6c0 0 0 0 0 0 51.2-51.2 132.267-51.2 183.467 4.267 8.533 8.533 21.333 8.533 34.133 4.267s17.067-12.8 17.067-29.867c0-72.533 55.467-128 128-128s128 55.467 128 128v8.533c0 12.8 8.533 21.333 17.067 25.6s21.333 4.267 34.133-8.533c51.2-51.2 132.267-51.2 179.2 0 51.2 51.2 51.2 132.267-4.267 183.467-4.267 8.533-8.533 21.333-4.267 29.867 0 0 0 0 0 0zM789.333 315.734c-17.067-42.667-8.533-89.6 25.6-128 8.533-8.533 12.8-17.067 12.8-29.867s-4.267-21.333-12.8-29.867c-8.533-8.533-17.067-12.8-29.867-12.8 0 0 0 0 0 0-12.8 0-21.333 4.267-34.133 17.067-34.133 34.133-81.067 42.667-123.733 21.333-42.667-17.067-68.267-59.733-68.267-102.4v-8.533c0-25.6-17.067-42.667-42.667-42.667s-42.667 17.067-42.667 42.667c0 0 0 4.267 0 4.267 0 46.933-29.867 85.333-72.533 102.4-12.8 8.533-29.867 8.533-46.933 8.533-29.867 0-59.733-12.8-81.067-34.133-17.067-17.067-42.667-17.067-59.733 0 0 0 0 0 0 0v0c-8.533 8.533-12.8 17.067-12.8 29.867s4.267 21.333 17.067 34.133c34.133 34.133 42.667 81.067 21.333 123.733-17.067 42.667-59.733 68.267-102.4 68.267h-8.533c-25.6 0-42.667 17.067-42.667 42.667s17.067 42.667 42.667 42.667c0 0 4.267 0 4.267 0 46.933 0 85.333 29.867 102.4 72.533s8.533 89.6-25.6 128c-17.067 17.067-17.067 42.667 0 59.733s42.667 17.067 64-4.267c29.867-29.867 76.8-38.4 115.2-25.6 4.267 0 8.533 0 12.8 4.267 42.667 17.067 68.267 59.733 68.267 102.4v8.533c0 25.6 17.067 42.667 42.667 42.667s42.667-17.067 42.667-46.933c0-46.933 25.6-85.333 68.267-102.4s89.6-8.533 128 25.6c8.533 8.533 17.067 12.8 29.867 12.8v0c12.8 0 21.333-4.267 29.867-12.8 0 0 0 0 0 0 17.067-17.067 17.067-42.667-4.267-64-29.867-29.867-38.4-76.8-25.6-115.2 0-4.267 0-8.533 4.267-12.8 17.067-42.667 59.733-68.267 102.4-68.267h8.533c25.6 0 42.667-17.067 42.667-42.667s-17.067-42.667-46.933-42.667c-42.667 0-85.333-25.6-102.4-68.267z" />
<glyph unicode="&#x26a0;" glyph-name="alert-triangle" d="M981.333 192l-358.4 605.867c-17.067 29.867-46.933 51.2-81.067 59.733s-68.267 4.267-98.133-12.8c-17.067-8.533-34.133-25.6-42.667-42.667 0 0 0 0 0 0l-358.4-610.133c-34.133-59.733-12.8-140.8 46.933-174.933 17.067-12.8 38.4-17.067 59.733-17.067h725.333c34.133 0 68.267 12.8 89.6 38.4 25.6 25.6 38.4 55.467 38.4 89.6-4.267 21.333-8.533 46.933-21.333 64zM904.533 98.134c-8.533-8.533-21.333-12.8-29.867-12.8h-725.333c-8.533 0-12.8 0-21.333 4.267-21.333 12.8-25.6 38.4-17.067 59.733l362.667 601.6c4.267 4.267 8.533 12.8 12.8 12.8 21.333 12.8 46.933 4.267 59.733-12.8l362.667-601.6c4.267-4.267 4.267-12.8 4.267-21.333 4.267-12.8-4.267-21.333-8.533-29.867zM512 597.334c-25.6 0-42.667-17.067-42.667-42.667v-170.667c0-25.6 17.067-42.667 42.667-42.667s42.667 17.067 42.667 42.667v170.667c0 25.6-17.067 42.667-42.667 42.667zM482.133 243.2c-8.533-8.533-12.8-17.067-12.8-29.867s4.267-21.333 12.8-29.867c8.533-8.533 17.067-12.8 29.867-12.8s21.333 4.267 29.867 12.8c8.533 8.533 12.8 21.333 12.8 29.867s-4.267 21.333-12.8 29.867c-17.067 17.067-42.667 17.067-59.733 0z" />
<glyph unicode="&#x26aa;" glyph-name="circle" d="M512 896c-260.267 0-469.333-209.067-469.333-469.333s209.067-469.333 469.333-469.333 469.333 209.067 469.333 469.333-209.067 469.333-469.333 469.333zM512 42.667c-213.333 0-384 170.667-384 384s170.667 384 384 384c213.333 0 384-170.667 384-384s-170.667-384-384-384z" />
<glyph unicode="&#x2702;" glyph-name="scissors" d="M883.2 738.134c17.067 17.067 17.067 42.667 0 59.733s-42.667 17.067-59.733 0l-311.467-311.467-110.933 110.933c17.067 25.6 25.6 55.467 25.6 85.333 0 93.867-76.8 170.667-170.667 170.667s-170.667-76.8-170.667-170.667 76.8-170.667 170.667-170.667c29.867 0 59.733 8.533 85.333 25.6l110.933-110.933-110.933-110.933c-25.6 17.067-55.467 25.6-85.333 25.6-93.867 0-170.667-76.8-170.667-170.667s76.8-170.667 170.667-170.667 170.667 76.8 170.667 170.667c0 29.867-8.533 59.733-25.6 85.333l482.133 482.133zM170.667 682.667c0 46.933 38.4 85.333 85.333 85.333s85.333-38.4 85.333-85.333c0-25.6-8.533-42.667-25.6-59.733 0 0 0 0 0 0s0 0 0 0c-17.067-17.067-34.133-25.6-59.733-25.6-46.933 0-85.333 38.4-85.333 85.333zM256 85.334c-46.933 0-85.333 38.4-85.333 85.333s38.4 85.333 85.333 85.333c25.6 0 42.667-8.533 59.733-25.6 0 0 0 0 0 0s0 0 0 0c17.067-17.067 25.6-34.133 25.6-59.733 0-46.933-38.4-85.333-85.333-85.333zM648.533 349.867c-17.067 17.067-42.667 17.067-59.733 0s-17.067-42.667 0-59.733l234.667-234.667c8.533-8.533 21.333-12.8 29.867-12.8s21.333 4.267 29.867 12.8c17.067 17.067 17.067 42.667 0 59.733l-234.667 234.667z" />
<glyph unicode="&#x2705;" glyph-name="check-circle" d="M938.667 507.734c-25.6 0-42.667-17.067-42.667-42.667v-38.4c0-213.333-170.667-384-384-384 0 0 0 0 0 0-213.333 0-384 170.667-384 384s170.667 384 384 384c0 0 0 0 0 0 55.467 0 106.667-12.8 157.867-34.133 21.333-8.533 46.933 0 55.467 21.333s0 46.933-21.333 55.467c-59.733 25.6-123.733 42.667-192 42.667 0 0 0 0 0 0-260.267 0-469.333-209.067-469.333-469.333s209.067-469.333 469.333-469.333c0 0 0 0 0 0 260.267 0 469.333 209.067 469.333 469.333v38.4c0 25.6-17.067 42.667-42.667 42.667zM413.867 499.2c-17.067 17.067-42.667 17.067-59.733 0s-17.067-42.667 0-59.733l128-128c8.533-8.533 17.067-12.8 29.867-12.8s21.333 4.267 29.867 12.8l426.667 426.667c17.067 17.067 17.067 42.667 0 59.733s-42.667 17.067-59.733 0l-396.8-396.8-98.133 98.133z" />
<glyph unicode="&#x270d;" glyph-name="edit-3" d="M128 170.667h170.667c12.8 0 21.333 4.267 29.867 12.8l469.333 469.333c17.067 17.067 17.067 42.667 0 59.733l-170.667 170.667c-17.067 17.067-42.667 17.067-59.733 0l-469.333-469.333c-8.533-8.533-12.8-17.067-12.8-29.867v-170.667c0-25.6 17.067-42.667 42.667-42.667zM170.667 366.934l426.667 426.667 110.933-110.933-426.667-426.667h-110.933v110.933zM896 42.667h-768c-25.6 0-42.667-17.067-42.667-42.667s17.067-42.667 42.667-42.667h768c25.6 0 42.667 17.067 42.667 42.667s-17.067 42.667-42.667 42.667z" />
<glyph unicode="&#x270f;" glyph-name="edit" d="M853.333 354.134c-25.6 0-42.667-17.067-42.667-42.667v-226.133c0-25.6-17.067-42.667-42.667-42.667h-597.333c-25.6 0-42.667 17.067-42.667 42.667v597.333c0 25.6 17.067 42.667 42.667 42.667h226.133c25.6 0 42.667 17.067 42.667 42.667s-17.067 42.667-42.667 42.667h-226.133c-72.533 0-128-55.467-128-128v-597.333c0-72.533 55.467-128 128-128h597.333c72.533 0 128 55.467 128 128v226.133c0 25.6-17.067 42.667-42.667 42.667zM968.533 712.534l-170.667 170.667c-17.067 17.067-42.667 17.067-59.733 0l-426.667-426.667c-8.533-8.533-12.8-17.067-12.8-29.867v-170.667c0-25.6 17.067-42.667 42.667-42.667h170.667c12.8 0 21.333 4.267 29.867 12.8l426.667 426.667c17.067 17.067 17.067 42.667 0 59.733zM494.933 298.667h-110.933v110.933l384 384 110.933-110.933-384-384z" />
<glyph unicode="&#x2714;" glyph-name="check" d="M883.2 712.534c-17.067 17.067-42.667 17.067-59.733 0l-439.467-439.467-183.467 183.467c-17.067 17.067-42.667 17.067-59.733 0s-17.067-42.667 0-59.733l213.333-213.333c8.533-8.533 17.067-12.8 29.867-12.8s21.333 4.267 29.867 12.8l469.333 469.333c17.067 17.067 17.067 42.667 0 59.733z" />
<glyph unicode="&#x2716;" glyph-name="x-square" d="M810.667 853.334h-597.333c-72.533 0-128-55.467-128-128v-597.333c0-72.533 55.467-128 128-128h597.333c72.533 0 128 55.467 128 128v597.333c0 72.533-55.467 128-128 128zM853.333 128c0-25.6-17.067-42.667-42.667-42.667h-597.333c-25.6 0-42.667 17.067-42.667 42.667v597.333c0 25.6 17.067 42.667 42.667 42.667h597.333c25.6 0 42.667-17.067 42.667-42.667v-597.333zM669.867 584.534c-17.067 17.067-42.667 17.067-59.733 0l-98.133-98.133-98.133 98.133c-17.067 17.067-42.667 17.067-59.733 0s-17.067-42.667 0-59.733l98.133-98.133-98.133-98.133c-17.067-17.067-17.067-42.667 0-59.733 8.533-8.533 17.067-12.8 29.867-12.8s21.333 4.267 29.867 12.8l98.133 98.133 98.133-98.133c8.533-8.533 21.333-12.8 29.867-12.8s21.333 4.267 29.867 12.8c17.067 17.067 17.067 42.667 0 59.733l-98.133 98.133 98.133 98.133c17.067 17.067 17.067 42.667 0 59.733z" />
<glyph unicode="&#x274c;" glyph-name="delete" d="M896 810.667h-554.667c-12.8 0-25.6-4.267-34.133-12.8l-298.667-341.333c-12.8-17.067-12.8-38.4 0-55.467l298.667-341.333c8.533-12.8 21.333-17.067 34.133-17.067h554.667c72.533 0 128 55.467 128 128v512c0 72.533-55.467 128-128 128zM938.667 170.667c0-25.6-17.067-42.667-42.667-42.667h-533.333l-260.267 298.667 260.267 298.667h533.333c25.6 0 42.667-17.067 42.667-42.667v-512zM797.867 584.534c-17.067 17.067-42.667 17.067-59.733 0l-98.133-98.133-98.133 98.133c-17.067 17.067-42.667 17.067-59.733 0s-17.067-42.667 0-59.733l98.133-98.133-98.133-98.133c-17.067-17.067-17.067-42.667 0-59.733 8.533-8.533 21.333-12.8 29.867-12.8s21.333 4.267 29.867 12.8l98.133 98.133 98.133-98.133c8.533-8.533 21.333-12.8 29.867-12.8s21.333 4.267 29.867 12.8c17.067 17.067 17.067 42.667 0 59.733l-98.133 98.133 98.133 98.133c17.067 17.067 17.067 42.667 0 59.733z" />
<glyph unicode="&#x2753;" glyph-name="help-circle" d="M512 896c-260.267 0-469.333-209.067-469.333-469.333s209.067-469.333 469.333-469.333 469.333 209.067 469.333 469.333-209.067 469.333-469.333 469.333zM512 42.667c-213.333 0-384 170.667-384 384s170.667 384 384 384c213.333 0 384-170.667 384-384s-170.667-384-384-384zM563.2 674.134c-89.6 29.867-187.733-17.067-217.6-102.4-4.267-25.6 4.267-51.2 29.867-55.467 21.333-8.533 46.933 4.267 55.467 25.6 17.067 42.667 64 68.267 110.933 51.2 34.133-12.8 55.467-42.667 55.467-81.067 0-42.667-72.533-76.8-98.133-89.6-21.333-8.533-34.133-29.867-25.6-55.467 4.267-17.067 21.333-29.867 38.4-29.867 4.267 0 8.533 0 12.8 4.267 17.067 4.267 157.867 55.467 157.867 166.4-4.267 76.8-51.2 140.8-119.467 166.4zM482.133 243.2c-8.533-8.533-12.8-17.067-12.8-29.867s4.267-21.333 12.8-29.867c8.533-8.533 17.067-12.8 29.867-12.8s21.333 4.267 29.867 12.8c8.533 8.533 12.8 21.333 12.8 29.867s-4.267 21.333-12.8 29.867c-17.067 17.067-42.667 17.067-59.733 0z" />
<glyph unicode="&#x2757;" glyph-name="alert-circle" d="M512 896c-260.267 0-469.333-209.067-469.333-469.333s209.067-469.333 469.333-469.333 469.333 209.067 469.333 469.333-209.067 469.333-469.333 469.333zM512 42.667c-213.333 0-384 170.667-384 384s170.667 384 384 384c213.333 0 384-170.667 384-384s-170.667-384-384-384zM512 640c-25.6 0-42.667-17.067-42.667-42.667v-170.667c0-25.6 17.067-42.667 42.667-42.667s42.667 17.067 42.667 42.667v170.667c0 25.6-17.067 42.667-42.667 42.667zM482.133 285.867c-8.533-8.533-12.8-17.067-12.8-29.867s4.267-21.333 12.8-29.867c8.533-8.533 17.067-12.8 29.867-12.8s21.333 4.267 29.867 12.8c8.533 8.533 12.8 21.333 12.8 29.867s-4.267 21.333-12.8 29.867c-17.067 17.067-42.667 17.067-59.733 0z" />
<glyph unicode="&#x2795;" glyph-name="plus-square" d="M810.667 853.334h-597.333c-72.533 0-128-55.467-128-128v-597.333c0-72.533 55.467-128 128-128h597.333c72.533 0 128 55.467 128 128v597.333c0 72.533-55.467 128-128 128zM853.333 128c0-25.6-17.067-42.667-42.667-42.667h-597.333c-25.6 0-42.667 17.067-42.667 42.667v597.333c0 25.6 17.067 42.667 42.667 42.667h597.333c25.6 0 42.667-17.067 42.667-42.667v-597.333zM682.667 469.334h-128v128c0 25.6-17.067 42.667-42.667 42.667s-42.667-17.067-42.667-42.667v-128h-128c-25.6 0-42.667-17.067-42.667-42.667s17.067-42.667 42.667-42.667h128v-128c0-25.6 17.067-42.667 42.667-42.667s42.667 17.067 42.667 42.667v128h128c25.6 0 42.667 17.067 42.667 42.667s-17.067 42.667-42.667 42.667z" />
<glyph unicode="&#x2796;" glyph-name="minus-square" d="M810.667 853.334h-597.333c-72.533 0-128-55.467-128-128v-597.333c0-72.533 55.467-128 128-128h597.333c72.533 0 128 55.467 128 128v597.333c0 72.533-55.467 128-128 128zM853.333 128c0-25.6-17.067-42.667-42.667-42.667h-597.333c-25.6 0-42.667 17.067-42.667 42.667v597.333c0 25.6 17.067 42.667 42.667 42.667h597.333c25.6 0 42.667-17.067 42.667-42.667v-597.333zM682.667 469.334h-341.333c-25.6 0-42.667-17.067-42.667-42.667s17.067-42.667 42.667-42.667h341.333c25.6 0 42.667 17.067 42.667 42.667s-17.067 42.667-42.667 42.667z" />
<glyph unicode="&#x279f;" glyph-name="fast-forward" d="M964.267 460.8l-384 298.667c-12.8 8.533-29.867 12.8-46.933 4.267-12.8-8.533-21.333-21.333-21.333-38.4v-597.333c0-17.067 8.533-29.867 25.6-38.4 4.267-4.267 12.8-4.267 17.067-4.267 8.533 0 17.067 4.267 25.6 8.533l384 298.667c8.533 8.533 17.067 21.333 17.067 34.133s-4.267 25.6-17.067 34.133zM597.333 213.334v426.667l273.067-213.333-273.067-213.333zM110.933 759.467c-12.8 8.533-29.867 12.8-42.667 4.267-17.067-8.533-25.6-21.333-25.6-38.4v-597.333c0-17.067 8.533-29.867 25.6-38.4 4.267-4.267 12.8-4.267 17.067-4.267 8.533 0 17.067 4.267 25.6 8.533l384 298.667c8.533 8.533 17.067 21.333 17.067 34.133s-4.267 25.6-17.067 34.133l-384 298.667zM128 213.334v426.667l273.067-213.333-273.067-213.333z" />
<glyph unicode="&#x27a1;" glyph-name="chevrons-right" d="M797.867 456.534l-213.333 213.333c-17.067 17.067-42.667 17.067-59.733 0s-17.067-42.667 0-59.733l183.467-183.467-183.467-183.467c-17.067-17.067-17.067-42.667 0-59.733 8.533-8.533 21.333-12.8 29.867-12.8s21.333 4.267 29.867 12.8l213.333 213.333c17.067 17.067 17.067 42.667 0 59.733zM499.2 456.534l-213.333 213.333c-17.067 17.067-42.667 17.067-59.733 0s-17.067-42.667 0-59.733l183.467-183.467-183.467-183.467c-17.067-17.067-17.067-42.667 0-59.733 8.533-8.533 17.067-12.8 29.867-12.8s21.333 4.267 29.867 12.8l213.333 213.333c17.067 17.067 17.067 42.667 0 59.733z" />
<glyph unicode="&#x27b6;" glyph-name="navigation" d="M968.533 883.2c-12.8 12.8-29.867 17.067-46.933 8.533l-810.667-384c-17.067-8.533-25.6-25.6-25.6-42.667s12.8-34.133 34.133-38.4l315.733-81.067 81.067-315.733c4.267-17.067 21.333-29.867 38.4-34.133 0 0 4.267 0 4.267 0 17.067 0 29.867 8.533 38.4 25.6l384 810.667c4.267 21.333 0 38.4-12.8 51.2zM567.467 170.667l-55.467 221.867c-4.267 17.067-17.067 25.6-29.867 29.867l-226.133 59.733 593.067 281.6-281.6-593.067z" />
<glyph unicode="&#x27f2;" glyph-name="rotate-ccw" d="M913.067 567.467c-38.4 106.667-115.2 192-217.6 243.2s-217.6 55.467-324.267 17.067c-59.733-21.333-115.2-55.467-157.867-98.133l-128-119.467v157.867c0 25.6-17.067 42.667-42.667 42.667s-42.667-17.067-42.667-42.667v-256c0 0 0-4.267 0-4.267 0-4.267 0-8.533 0-8.533 0-4.267 4.267-4.267 4.267-8.533 0 0 0-4.267 4.267-4.267 0 0 0 0 0 0 4.267-4.267 4.267-4.267 8.533-4.267 0 0 4.267-4.267 4.267-4.267s4.267 0 4.267 0 8.533 0 8.533 0c0 0 0 0 0 0h256c25.6 0 42.667 17.067 42.667 42.667s-8.533 34.133-34.133 34.133h-149.333l119.467 115.2c34.133 34.133 81.067 64 128 81.067 85.333 29.867 179.2 25.6 260.267-12.8s145.067-106.667 174.933-196.267c29.867-85.333 25.6-179.2-12.8-260.267s-106.667-145.067-196.267-174.933c-179.2-64-371.2 29.867-435.2 209.067-8.533 21.333-34.133 34.133-55.467 25.6s-34.133-34.133-25.6-55.467c64-174.933 230.4-285.867 405.333-285.867 46.933 0 93.867 8.533 140.8 25.6 221.867 76.8 341.333 320 260.267 541.867z" />
<glyph unicode="&#x27f3;" glyph-name="rotate-cw" d="M1024 507.734c0 0 0 4.267 0 4.267v256c0 25.6-17.067 42.667-42.667 42.667s-42.667-17.067-42.667-42.667v-157.867l-123.733 119.467c-42.667 42.667-98.133 81.067-157.867 102.4-226.133 76.8-469.333-42.667-546.133-264.533s38.4-465.067 260.267-546.133c46.933-12.8 93.867-21.333 140.8-21.333 174.933 0 341.333 110.933 401.067 285.867 8.533 21.333-4.267 46.933-25.6 55.467s-46.933-4.267-55.467-25.6c-64-179.2-256-268.8-435.2-209.067-179.2 64-268.8 256-209.067 435.2 64 174.933 260.267 268.8 439.467 204.8 46.933-17.067 93.867-42.667 128-81.067l119.467-110.933h-149.333c-25.6 0-42.667-17.067-42.667-42.667s17.067-42.667 42.667-42.667h256c0 0 0 0 0 0 4.267 0 8.533 0 8.533 4.267 0 0 4.267 0 4.267 0s4.267 4.267 4.267 4.267c4.267 0 8.533 4.267 8.533 8.533 0 0 0 0 0 0s0 4.267 4.267 4.267c0 4.267 4.267 4.267 4.267 8.533 8.533 0 8.533 4.267 8.533 8.533z" />
<glyph unicode="&#x2913;" glyph-name="download" d="M896 341.334c-25.6 0-42.667-17.067-42.667-42.667v-170.667c0-25.6-17.067-42.667-42.667-42.667h-597.333c-25.6 0-42.667 17.067-42.667 42.667v170.667c0 25.6-17.067 42.667-42.667 42.667s-42.667-17.067-42.667-42.667v-170.667c0-72.533 55.467-128 128-128h597.333c72.533 0 128 55.467 128 128v170.667c0 25.6-17.067 42.667-42.667 42.667zM482.133 268.8c4.267-4.267 8.533-8.533 12.8-8.533 4.267-4.267 12.8-4.267 17.067-4.267s12.8 0 17.067 4.267c4.267 4.267 8.533 4.267 12.8 8.533l213.333 213.333c17.067 17.067 17.067 42.667 0 59.733s-42.667 17.067-59.733 0l-140.8-140.8v409.6c0 25.6-17.067 42.667-42.667 42.667s-42.667-17.067-42.667-42.667v-409.6l-140.8 140.8c-17.067 17.067-42.667 17.067-59.733 0s-17.067-42.667 0-59.733l213.333-213.333z" />
<glyph unicode="&#x2922;" glyph-name="maximize-2" d="M934.4 827.734c-4.267 8.533-12.8 17.067-21.333 21.333-4.267 4.267-12.8 4.267-17.067 4.267h-256c-25.6 0-42.667-17.067-42.667-42.667s17.067-42.667 42.667-42.667h153.6l-226.133-226.133c-17.067-17.067-17.067-42.667 0-59.733 8.533-8.533 21.333-12.8 29.867-12.8s21.333 4.267 29.867 12.8l226.133 226.133v-153.6c0-25.6 17.067-42.667 42.667-42.667s42.667 17.067 42.667 42.667v256c0 4.267 0 12.8-4.267 17.067zM396.8 371.2l-226.133-226.133v153.6c0 25.6-17.067 42.667-42.667 42.667s-42.667-17.067-42.667-42.667v-256c0-4.267 0-12.8 4.267-17.067 4.267-8.533 12.8-17.067 21.333-21.333 4.267-4.267 12.8-4.267 17.067-4.267h256c25.6 0 42.667 17.067 42.667 42.667s-17.067 42.667-42.667 42.667h-153.6l226.133 226.133c17.067 17.067 17.067 42.667 0 59.733s-42.667 17.067-59.733 0z" />
<glyph unicode="&#x2924;" glyph-name="trending-up" d="M1019.733 699.734c-4.267 8.533-12.8 17.067-21.333 21.333-4.267 4.267-12.8 4.267-17.067 4.267h-256c-25.6 0-42.667-17.067-42.667-42.667s17.067-42.667 42.667-42.667h153.6l-302.933-302.933-183.467 183.467c-17.067 17.067-42.667 17.067-59.733 0l-320-320c-17.067-17.067-17.067-42.667 0-59.733 8.533-8.533 17.067-12.8 29.867-12.8s21.333 4.267 29.867 12.8l290.133 290.133 183.467-183.467c17.067-17.067 42.667-17.067 59.733 0l332.8 332.8v-153.6c0-25.6 17.067-42.667 42.667-42.667s42.667 17.067 42.667 42.667v256c0 4.267 0 12.8-4.267 17.067z" />
<glyph unicode="&#x2925;" glyph-name="trending-down" d="M1024 426.667c0 25.6-17.067 42.667-42.667 42.667s-42.667-17.067-42.667-42.667v-153.6l-332.8 332.8c-17.067 17.067-42.667 17.067-59.733 0l-183.467-183.467-290.133 290.133c-17.067 17.067-42.667 17.067-59.733 0s-17.067-42.667 0-59.733l320-320c17.067-17.067 42.667-17.067 59.733 0l183.467 183.467 302.933-302.933h-153.6c-25.6 0-42.667-17.067-42.667-42.667s17.067-42.667 42.667-42.667h256c4.267 0 12.8 0 17.067 4.267 8.533 4.267 17.067 12.8 21.333 21.333 4.267 4.267 4.267 12.8 4.267 17.067v256z" />
<glyph unicode="&#x2927;" glyph-name="move" d="M977.067 409.6c4.267 8.533 4.267 21.333 0 34.133-4.267 4.267-4.267 8.533-8.533 12.8l-128 128c-17.067 17.067-42.667 17.067-59.733 0s-17.067-42.667 0-59.733l55.467-55.467h-281.6v281.6l55.467-55.467c8.533-8.533 17.067-12.8 29.867-12.8s21.333 4.267 29.867 12.8c17.067 17.067 17.067 42.667 0 59.733l-128 128c-4.267 4.267-8.533 8.533-12.8 8.533-8.533 4.267-21.333 4.267-34.133 0-4.267-4.267-8.533-4.267-12.8-8.533l-128-128c-17.067-17.067-17.067-42.667 0-59.733s42.667-17.067 59.733 0l55.467 55.467v-281.6h-281.6l55.467 55.467c17.067 17.067 17.067 42.667 0 59.733s-42.667 17.067-59.733 0l-128-128c-4.267-4.267-8.533-8.533-8.533-12.8-4.267-8.533-4.267-21.333 0-34.133 4.267-4.267 4.267-8.533 8.533-12.8l128-128c8.533-8.533 17.067-12.8 29.867-12.8s21.333 4.267 29.867 12.8c17.067 17.067 17.067 42.667 0 59.733l-55.467 55.467h281.6v-281.6l-55.467 55.467c-17.067 17.067-42.667 17.067-59.733 0s-17.067-42.667 0-59.733l128-128c4.267-4.267 8.533-8.533 12.8-8.533 4.267-4.267 12.8-4.267 17.067-4.267s12.8 0 17.067 4.267c4.267 4.267 8.533 4.267 12.8 8.533l128 128c17.067 17.067 17.067 42.667 0 59.733s-42.667 17.067-59.733 0l-55.467-55.467v281.6h281.6l-55.467-55.467c-17.067-17.067-17.067-42.667 0-59.733 8.533-8.533 21.333-12.8 29.867-12.8s21.333 4.267 29.867 12.8l128 128c4.267 4.267 8.533 8.533 8.533 12.8z" />
<glyph unicode="&#x292e;" glyph-name="shuffle" d="M934.4 827.734c-4.267 8.533-12.8 17.067-21.333 21.333-4.267 4.267-12.8 4.267-17.067 4.267h-213.333c-25.6 0-42.667-17.067-42.667-42.667s17.067-42.667 42.667-42.667h110.933l-652.8-652.8c-17.067-17.067-17.067-42.667 0-59.733 8.533-8.533 17.067-12.8 29.867-12.8s21.333 4.267 29.867 12.8l652.8 652.8v-110.933c0-25.6 17.067-42.667 42.667-42.667s42.667 17.067 42.667 42.667v213.333c0 4.267 0 12.8-4.267 17.067zM896 298.667c-25.6 0-42.667-17.067-42.667-42.667v-110.933l-183.467 183.467c-17.067 17.067-42.667 17.067-59.733 0s-17.067-42.667 0-59.733l183.467-183.467h-110.933c-25.6 0-42.667-17.067-42.667-42.667s17.067-42.667 42.667-42.667h213.333c4.267 0 12.8 0 17.067 4.267 8.533 4.267 17.067 12.8 21.333 21.333 4.267 4.267 4.267 12.8 4.267 17.067v213.333c0 25.6-17.067 42.667-42.667 42.667zM354.133 524.8c8.533-8.533 17.067-12.8 29.867-12.8s21.333 4.267 29.867 12.8c17.067 17.067 17.067 42.667 0 59.733l-213.333 213.333c-17.067 17.067-42.667 17.067-59.733 0s-17.067-42.667 0-59.733l213.333-213.333z" />
<glyph unicode="&#x2934;" glyph-name="corner-right-up" d="M883.2 584.534l-213.333 213.333c-4.267 4.267-8.533 8.533-12.8 8.533-8.533 4.267-21.333 4.267-34.133 0-4.267-4.267-8.533-4.267-12.8-8.533l-213.333-213.333c-17.067-17.067-17.067-42.667 0-59.733s42.667-17.067 59.733 0l140.8 140.8v-409.6c0-72.533-55.467-128-128-128h-298.667c-25.6 0-42.667-17.067-42.667-42.667s17.067-42.667 42.667-42.667h298.667c119.467 0 213.333 93.867 213.333 213.333v409.6l140.8-140.8c8.533-8.533 17.067-12.8 29.867-12.8s21.333 4.267 29.867 12.8c17.067 17.067 17.067 42.667 0 59.733z" />
<glyph unicode="&#x2935;" glyph-name="corner-right-down" d="M883.2 328.534c-17.067 17.067-42.667 17.067-59.733 0l-140.8-140.8v409.6c0 119.467-93.867 213.333-213.333 213.333h-298.667c-25.6 0-42.667-17.067-42.667-42.667s17.067-42.667 42.667-42.667h298.667c72.533 0 128-55.467 128-128v-409.6l-140.8 140.8c-17.067 17.067-42.667 17.067-59.733 0s-17.067-42.667 0-59.733l213.333-213.333c4.267-4.267 8.533-8.533 12.8-8.533 4.267-4.267 12.8-4.267 17.067-4.267s12.8 0 17.067 4.267c4.267 4.267 8.533 4.267 12.8 8.533l213.333 213.333c17.067 17.067 17.067 42.667 0 59.733z" />
<glyph unicode="&#x2936;" glyph-name="corner-down-left" d="M853.333 810.667c-25.6 0-42.667-17.067-42.667-42.667v-298.667c0-72.533-55.467-128-128-128h-409.6l140.8 140.8c17.067 17.067 17.067 42.667 0 59.733s-42.667 17.067-59.733 0l-213.333-213.333c-4.267-4.267-8.533-8.533-8.533-12.8-4.267-8.533-4.267-21.333 0-34.133 4.267-4.267 4.267-8.533 8.533-12.8l213.333-213.333c8.533-8.533 17.067-12.8 29.867-12.8s21.333 4.267 29.867 12.8c17.067 17.067 17.067 42.667 0 59.733l-140.8 140.8h409.6c119.467 0 213.333 93.867 213.333 213.333v298.667c0 25.6-17.067 42.667-42.667 42.667z" />
<glyph unicode="&#x2937;" glyph-name="corner-down-right" d="M891.733 281.6c4.267 8.533 4.267 21.333 0 34.133-4.267 4.267-4.267 8.533-8.533 12.8l-213.333 213.333c-17.067 17.067-42.667 17.067-59.733 0s-17.067-42.667 0-59.733l140.8-140.8h-409.6c-72.533 0-128 55.467-128 128v298.667c0 25.6-17.067 42.667-42.667 42.667s-42.667-17.067-42.667-42.667v-298.667c0-119.467 93.867-213.333 213.333-213.333h409.6l-140.8-140.8c-17.067-17.067-17.067-42.667 0-59.733 8.533-8.533 21.333-12.8 29.867-12.8s21.333 4.267 29.867 12.8l213.333 213.333c4.267 4.267 8.533 8.533 8.533 12.8z" />
<glyph unicode="&#x2939;" glyph-name="corner-left-down" d="M853.333 810.667h-298.667c-119.467 0-213.333-93.867-213.333-213.333v-409.6l-140.8 140.8c-17.067 17.067-42.667 17.067-59.733 0s-17.067-42.667 0-59.733l213.333-213.333c4.267-4.267 8.533-8.533 12.8-8.533 4.267-4.267 12.8-4.267 17.067-4.267s12.8 0 17.067 4.267c4.267 4.267 8.533 4.267 12.8 8.533l213.333 213.333c17.067 17.067 17.067 42.667 0 59.733s-42.667 17.067-59.733 0l-140.8-140.8v409.6c0 72.533 55.467 128 128 128h298.667c25.6 0 42.667 17.067 42.667 42.667s-17.067 42.667-42.667 42.667z" />
<glyph unicode="&#x293a;" glyph-name="corner-up-left" d="M682.667 597.334h-409.6l140.8 140.8c17.067 17.067 17.067 42.667 0 59.733s-42.667 17.067-59.733 0l-213.333-213.333c-4.267-4.267-8.533-8.533-8.533-12.8-4.267-12.8-4.267-21.333 0-34.133 4.267-4.267 4.267-8.533 8.533-12.8l213.333-213.333c8.533-8.533 17.067-12.8 29.867-12.8s21.333 4.267 29.867 12.8c17.067 17.067 17.067 42.667 0 59.733l-140.8 140.8h409.6c72.533 0 128-55.467 128-128v-298.667c0-25.6 17.067-42.667 42.667-42.667s42.667 17.067 42.667 42.667v298.667c0 119.467-93.867 213.333-213.333 213.333z" />
<glyph unicode="&#x293e;" glyph-name="repeat" d="M128 426.667c25.6 0 42.667 17.067 42.667 42.667v85.333c0 72.533 55.467 128 128 128h494.933l-98.133-98.133c-17.067-17.067-17.067-42.667 0-59.733 8.533-8.533 17.067-12.8 29.867-12.8s21.333 4.267 29.867 12.8l170.667 170.667c4.267 4.267 8.533 8.533 8.533 12.8 4.267 8.533 4.267 21.333 0 34.133-4.267 4.267-4.267 8.533-8.533 12.8l-170.667 170.667c-17.067 17.067-42.667 17.067-59.733 0s-17.067-42.667 0-59.733l98.133-98.133h-494.933c-119.467 0-213.333-93.867-213.333-213.333v-85.333c0-25.6 17.067-42.667 42.667-42.667zM896 426.667c-25.6 0-42.667-17.067-42.667-42.667v-85.333c0-72.533-55.467-128-128-128h-494.933l98.133 98.133c17.067 17.067 17.067 42.667 0 59.733s-42.667 17.067-59.733 0l-170.667-170.667c-4.267-4.267-8.533-8.533-8.533-12.8-4.267-8.533-4.267-21.333 0-34.133 4.267-4.267 4.267-8.533 8.533-12.8l170.667-170.667c8.533-8.533 17.067-12.8 29.867-12.8s21.333 4.267 29.867 12.8c17.067 17.067 17.067 42.667 0 59.733l-98.133 98.133h494.933c119.467 0 213.333 93.867 213.333 213.333v85.333c0 25.6-17.067 42.667-42.667 42.667z" />
<glyph unicode="&#x2949;" glyph-name="navigation-2" d="M849.067 55.467l-298.667 810.667c-4.267 17.067-21.333 29.867-38.4 29.867s-34.133-12.8-38.4-29.867l-298.667-810.667c-4.267-17.067 0-34.133 12.8-46.933s34.133-12.8 46.933-4.267l277.333 157.867 277.333-157.867c8.533-4.267 12.8-4.267 21.333-4.267s21.333 4.267 25.6 8.533c17.067 12.8 21.333 34.133 12.8 46.933zM533.333 251.734c-8.533 4.267-12.8 4.267-21.333 4.267s-12.8 0-21.333-4.267l-196.267-110.933 217.6 588.8 217.6-593.067-196.267 115.2z" />
<glyph unicode="&#x2b00;" glyph-name="external-link" d="M768 426.667c-25.6 0-42.667-17.067-42.667-42.667v-256c0-25.6-17.067-42.667-42.667-42.667h-469.333c-25.6 0-42.667 17.067-42.667 42.667v469.333c0 25.6 17.067 42.667 42.667 42.667h256c25.6 0 42.667 17.067 42.667 42.667s-17.067 42.667-42.667 42.667h-256c-72.533 0-128-55.467-128-128v-469.333c0-72.533 55.467-128 128-128h469.333c72.533 0 128 55.467 128 128v256c0 25.6-17.067 42.667-42.667 42.667zM934.4 827.734c-4.267 8.533-12.8 17.067-21.333 21.333-4.267 4.267-12.8 4.267-17.067 4.267h-256c-25.6 0-42.667-17.067-42.667-42.667s17.067-42.667 42.667-42.667h153.6l-396.8-396.8c-17.067-17.067-17.067-42.667 0-59.733 8.533-8.533 17.067-12.8 29.867-12.8s21.333 4.267 29.867 12.8l396.8 396.8v-153.6c0-25.6 17.067-42.667 42.667-42.667s42.667 17.067 42.667 42.667v256c0 4.267 0 12.8-4.267 17.067z" />
<glyph unicode="&#x2b05;" glyph-name="chevrons-left" d="M315.733 426.667l183.467 183.467c17.067 17.067 17.067 42.667 0 59.733s-42.667 17.067-59.733 0l-213.333-213.333c-17.067-17.067-17.067-42.667 0-59.733l213.333-213.333c8.533-8.533 21.333-12.8 29.867-12.8s21.333 4.267 29.867 12.8c17.067 17.067 17.067 42.667 0 59.733l-183.467 183.467zM614.4 426.667l183.467 183.467c17.067 17.067 17.067 42.667 0 59.733s-42.667 17.067-59.733 0l-213.333-213.333c-17.067-17.067-17.067-42.667 0-59.733l213.333-213.333c8.533-8.533 21.333-12.8 29.867-12.8s21.333 4.267 29.867 12.8c17.067 17.067 17.067 42.667 0 59.733l-183.467 183.467z" />
<glyph unicode="&#x2b06;" glyph-name="upload" d="M896 341.334c-25.6 0-42.667-17.067-42.667-42.667v-170.667c0-25.6-17.067-42.667-42.667-42.667h-597.333c-25.6 0-42.667 17.067-42.667 42.667v170.667c0 25.6-17.067 42.667-42.667 42.667s-42.667-17.067-42.667-42.667v-170.667c0-72.533 55.467-128 128-128h597.333c72.533 0 128 55.467 128 128v170.667c0 25.6-17.067 42.667-42.667 42.667zM328.533 567.467l140.8 140.8v-409.6c0-25.6 17.067-42.667 42.667-42.667s42.667 17.067 42.667 42.667v409.6l140.8-140.8c8.533-8.533 17.067-12.8 29.867-12.8s21.333 4.267 29.867 12.8c17.067 17.067 17.067 42.667 0 59.733l-213.333 213.333c-4.267 4.267-8.533 8.533-12.8 8.533-8.533 4.267-21.333 4.267-34.133 0-4.267-4.267-8.533-4.267-12.8-8.533l-213.333-213.333c-17.067-17.067-17.067-42.667 0-59.733s42.667-17.067 59.733 0z" />
<glyph unicode="&#xe901;" glyph-name="airplay" d="M853.333 853.334h-682.667c-72.533 0-128-55.467-128-128v-426.667c0-72.533 55.467-128 128-128h42.667c25.6 0 42.667 17.067 42.667 42.667s-17.067 42.667-42.667 42.667h-42.667c-25.6 0-42.667 17.067-42.667 42.667v426.667c0 25.6 17.067 42.667 42.667 42.667h682.667c25.6 0 42.667-17.067 42.667-42.667v-426.667c0-25.6-17.067-42.667-42.667-42.667h-42.667c-25.6 0-42.667-17.067-42.667-42.667s17.067-42.667 42.667-42.667h42.667c72.533 0 128 55.467 128 128v426.667c0 72.533-55.467 128-128 128zM546.133 324.267c-17.067 21.333-51.2 21.333-64 0l-213.333-256c-8.533-12.8-12.8-29.867-4.267-46.933 4.267-12.8 17.067-21.333 34.133-21.333h426.667c17.067 0 29.867 8.533 38.4 25.6s4.267 34.133-4.267 46.933l-213.333 251.733zM388.267 85.334l123.733 145.067 123.733-145.067h-247.467z" />
<glyph unicode="&#xe907;" glyph-name="align-center" d="M256 554.667c-25.6 0-42.667-17.067-42.667-42.667s17.067-42.667 42.667-42.667h512c25.6 0 42.667 17.067 42.667 42.667s-17.067 42.667-42.667 42.667h-512zM128 640h768c25.6 0 42.667 17.067 42.667 42.667s-17.067 42.667-42.667 42.667h-768c-25.6 0-42.667-17.067-42.667-42.667s17.067-42.667 42.667-42.667zM896 384h-768c-25.6 0-42.667-17.067-42.667-42.667s17.067-42.667 42.667-42.667h768c25.6 0 42.667 17.067 42.667 42.667s-17.067 42.667-42.667 42.667zM768 213.334h-512c-25.6 0-42.667-17.067-42.667-42.667s17.067-42.667 42.667-42.667h512c25.6 0 42.667 17.067 42.667 42.667s-17.067 42.667-42.667 42.667z" />
<glyph unicode="&#xe908;" glyph-name="align-justify" d="M896 554.667h-768c-25.6 0-42.667-17.067-42.667-42.667s17.067-42.667 42.667-42.667h768c25.6 0 42.667 17.067 42.667 42.667s-17.067 42.667-42.667 42.667zM128 640h768c25.6 0 42.667 17.067 42.667 42.667s-17.067 42.667-42.667 42.667h-768c-25.6 0-42.667-17.067-42.667-42.667s17.067-42.667 42.667-42.667zM896 384h-768c-25.6 0-42.667-17.067-42.667-42.667s17.067-42.667 42.667-42.667h768c25.6 0 42.667 17.067 42.667 42.667s-17.067 42.667-42.667 42.667zM896 213.334h-768c-25.6 0-42.667-17.067-42.667-42.667s17.067-42.667 42.667-42.667h768c25.6 0 42.667 17.067 42.667 42.667s-17.067 42.667-42.667 42.667z" />
<glyph unicode="&#xe909;" glyph-name="align-left" d="M128 469.334h597.333c25.6 0 42.667 17.067 42.667 42.667s-17.067 42.667-42.667 42.667h-597.333c-25.6 0-42.667-17.067-42.667-42.667s17.067-42.667 42.667-42.667zM128 640h768c25.6 0 42.667 17.067 42.667 42.667s-17.067 42.667-42.667 42.667h-768c-25.6 0-42.667-17.067-42.667-42.667s17.067-42.667 42.667-42.667zM896 384h-768c-25.6 0-42.667-17.067-42.667-42.667s17.067-42.667 42.667-42.667h768c25.6 0 42.667 17.067 42.667 42.667s-17.067 42.667-42.667 42.667zM725.333 213.334h-597.333c-25.6 0-42.667-17.067-42.667-42.667s17.067-42.667 42.667-42.667h597.333c25.6 0 42.667 17.067 42.667 42.667s-17.067 42.667-42.667 42.667z" />
<glyph unicode="&#xe90a;" glyph-name="align-right" d="M896 554.667h-597.333c-25.6 0-42.667-17.067-42.667-42.667s17.067-42.667 42.667-42.667h597.333c25.6 0 42.667 17.067 42.667 42.667s-17.067 42.667-42.667 42.667zM128 640h768c25.6 0 42.667 17.067 42.667 42.667s-17.067 42.667-42.667 42.667h-768c-25.6 0-42.667-17.067-42.667-42.667s17.067-42.667 42.667-42.667zM896 384h-768c-25.6 0-42.667-17.067-42.667-42.667s17.067-42.667 42.667-42.667h768c25.6 0 42.667 17.067 42.667 42.667s-17.067 42.667-42.667 42.667zM896 213.334h-597.333c-25.6 0-42.667-17.067-42.667-42.667s17.067-42.667 42.667-42.667h597.333c25.6 0 42.667 17.067 42.667 42.667s-17.067 42.667-42.667 42.667z" />
<glyph unicode="&#xe920;" glyph-name="bluetooth" d="M571.733 426.667l204.8 204.8c17.067 17.067 17.067 42.667 0 59.733l-234.667 234.667c-12.8 12.8-29.867 17.067-46.933 8.533-17.067-4.267-25.6-21.333-25.6-38.4v-366.933l-162.133 162.133c-17.067 17.067-42.667 17.067-59.733 0s-17.067-42.667 0-59.733l204.8-204.8-204.8-204.8c-17.067-17.067-17.067-42.667 0-59.733s42.667-17.067 59.733 0l162.133 162.133v-366.933c0-17.067 8.533-34.133 25.6-38.4 4.267-4.267 12.8-4.267 17.067-4.267 12.8 0 21.333 4.267 29.867 12.8l234.667 234.667c17.067 17.067 17.067 42.667 0 59.733l-204.8 204.8zM554.667 793.6l132.267-132.267-132.267-132.267v264.533zM554.667 59.734v264.533l132.267-132.267-132.267-132.267z" />
<glyph unicode="&#xe92a;" glyph-name="cast" d="M93.867 294.4c-21.333 4.267-46.933-12.8-51.2-34.133s8.533-46.933 34.133-51.2c68.267-12.8 119.467-64 132.267-132.267 4.267-21.333 21.333-34.133 42.667-34.133 4.267 0 4.267 0 8.533 0 21.333 4.267 38.4 25.6 34.133 51.2-21.333 102.4-98.133 179.2-200.533 200.533zM853.333 810.667h-682.667c-72.533 0-128-55.467-128-128v-85.333c0-25.6 17.067-42.667 42.667-42.667s42.667 17.067 42.667 42.667v85.333c0 25.6 17.067 42.667 42.667 42.667h682.667c25.6 0 42.667-17.067 42.667-42.667v-512c0-25.6-17.067-42.667-42.667-42.667h-256c-25.6 0-42.667-17.067-42.667-42.667s17.067-42.667 42.667-42.667h256c72.533 0 128 55.467 128 128v512c0 72.533-55.467 128-128 128zM89.6 465.067c-21.333 4.267-42.667-12.8-46.933-38.4-4.267-21.333 12.8-42.667 38.4-46.933 157.867-17.067 281.6-140.8 302.933-302.933 0-17.067 17.067-34.133 38.4-34.133 0 0 4.267 0 4.267 0 21.333 4.267 38.4 25.6 38.4 46.933-21.333 200.533-174.933 354.133-375.467 375.467zM55.467 115.2c-8.533-8.533-12.8-17.067-12.8-29.867s4.267-21.333 12.8-29.867c8.533-8.533 17.067-12.8 29.867-12.8s21.333 4.267 29.867 12.8c8.533 8.533 12.8 17.067 12.8 29.867s-4.267 21.333-12.8 29.867c-17.067 17.067-42.667 17.067-59.733 0z" />
<glyph unicode="&#xe935;" glyph-name="chrome" d="M942.933 610.134c0 4.267 0 4.267 0 0-76.8 170.667-238.933 285.867-430.933 285.867-153.6 0-290.133-72.533-375.467-187.733 0-4.267-4.267-4.267-4.267-8.533-55.467-76.8-89.6-170.667-89.6-273.067 0-238.933 179.2-435.2 409.6-465.067 0 0 4.267 0 4.267 0 17.067 0 34.133-4.267 51.2-4.267 260.267 0 469.333 209.067 469.333 469.333 4.267 64-8.533 128-34.133 183.467zM512 810.667c132.267 0 251.733-68.267 320-170.667h-320c-89.6 0-162.133-55.467-196.267-128l-93.867 162.133c68.267 85.333 174.933 136.533 290.133 136.533zM640 426.667c0-72.533-55.467-128-128-128s-128 55.467-128 128 55.467 128 128 128 128-55.467 128-128zM128 426.667c0 59.733 12.8 119.467 38.4 170.667l157.867-277.333c0 0 0-4.267 4.267-4.267 38.4-59.733 106.667-102.4 183.467-102.4 8.533 0 17.067 0 25.6 4.267l-98.133-166.4c-174.933 29.867-311.467 187.733-311.467 375.467zM537.6 42.667l157.867 277.333c0 0 0 4.267 0 4.267 17.067 29.867 25.6 64 25.6 102.4 0 46.933-17.067 93.867-42.667 128h192c12.8-38.4 21.333-81.067 21.333-128 4.267-204.8-153.6-371.2-354.133-384z" />
<glyph unicode="&#xe938;" glyph-name="codepen" d="M981.333 268.8c0 4.267 0 4.267 0 8.533v298.667c0 4.267 0 4.267 0 8.533 0 0 0 0 0 4.267s-4.267 8.533-4.267 12.8c0 0 0 0 0 0s0 0 0 0c-4.267 4.267-4.267 8.533-8.533 8.533v0c0 0 0 0 0 0l-426.667 277.333c0 0-4.267 0-4.267 0s-4.267 0-4.267 0c-8.533 4.267-21.333 4.267-29.867 0 0 0-4.267 0-4.267 0s-4.267 0-4.267 0l-426.667-277.333c-8.533 0-12.8-4.267-17.067-8.533 0 0 0 0 0 0s0 0 0 0c-4.267-8.533-4.267-12.8-8.533-17.067 0 0 0 0 0-4.267s0-4.267 0-8.533v-298.667c0-4.267 0-4.267 0-8.533 0 0 0 0 0-4.267s4.267-8.533 4.267-12.8c0 0 0 0 0 0s0 0 0 0c4.267-4.267 4.267-8.533 8.533-8.533l426.667-277.333c0 0 4.267 0 4.267 0s4.267 0 4.267 0 8.533-4.267 12.8-4.267 8.533 0 12.8 4.267c0 0 4.267 0 4.267 0s4.267 0 4.267 0l426.667 277.333c4.267 4.267 8.533 8.533 12.8 8.533 0 0 0 0 0 0s0 0 0 0c12.8 12.8 12.8 17.067 17.067 21.333 0 0 0 0 0 0zM128 494.934l98.133-68.267-98.133-68.267v136.533zM512 328.534l-140.8 98.133 140.8 98.133 140.8-98.133-140.8-98.133zM554.667 597.334v179.2l307.2-200.533-136.533-98.133-170.667 119.467zM469.333 597.334l-170.667-119.467-136.533 98.133 307.2 200.533v-179.2zM298.667 375.467l170.667-119.467v-174.933l-307.2 200.533 136.533 93.867zM554.667 256l170.667 119.467 136.533-93.867-307.2-204.8v179.2zM797.867 426.667l98.133 68.267v-136.533l-98.133 68.267z" />
<glyph unicode="&#xe93f;" glyph-name="corner-left-up" d="M853.333 128h-298.667c-72.533 0-128 55.467-128 128v409.6l140.8-140.8c8.533-8.533 17.067-12.8 29.867-12.8s21.333 4.267 29.867 12.8c17.067 17.067 17.067 42.667 0 59.733l-213.333 213.333c-4.267 4.267-8.533 8.533-12.8 8.533-12.8 4.267-21.333 4.267-34.133 0-4.267 0-8.533-4.267-12.8-8.533l-213.333-213.333c-17.067-17.067-17.067-42.667 0-59.733s42.667-17.067 59.733 0l140.8 140.8v-409.6c0-119.467 93.867-213.333 213.333-213.333h298.667c25.6 0 42.667 17.067 42.667 42.667s-17.067 42.667-42.667 42.667z" />
<glyph unicode="&#xe943;" glyph-name="corner-up-right" d="M891.733 537.6c4.267 8.533 4.267 21.333 0 34.133-4.267 4.267-4.267 8.533-8.533 12.8l-213.333 213.333c-17.067 17.067-42.667 17.067-59.733 0s-17.067-42.667 0-59.733l140.8-140.8h-409.6c-119.467 0-213.333-93.867-213.333-213.333v-298.667c0-25.6 17.067-42.667 42.667-42.667s42.667 17.067 42.667 42.667v298.667c0 72.533 55.467 128 128 128h409.6l-140.8-140.8c-17.067-17.067-17.067-42.667 0-59.733 8.533-8.533 21.333-12.8 29.867-12.8s21.333 4.267 29.867 12.8l213.333 213.333c4.267 4.267 8.533 8.533 8.533 12.8z" />
<glyph unicode="&#xe944;" glyph-name="cpu" d="M640 597.334h-256c-25.6 0-42.667-17.067-42.667-42.667v-256c0-25.6 17.067-42.667 42.667-42.667h256c25.6 0 42.667 17.067 42.667 42.667v256c0 25.6-17.067 42.667-42.667 42.667zM597.333 341.334h-170.667v170.667h170.667v-170.667zM981.333 384h-85.333v128h85.333c25.6 0 42.667 17.067 42.667 42.667s-17.067 42.667-42.667 42.667h-85.333v85.333c0 72.533-55.467 128-128 128h-85.333v85.333c0 25.6-17.067 42.667-42.667 42.667s-42.667-17.067-42.667-42.667v-85.333h-170.667v85.333c0 25.6-17.067 42.667-42.667 42.667s-42.667-17.067-42.667-42.667v-85.333h-85.333c-72.533 0-128-55.467-128-128v-85.333h-85.333c-25.6 0-42.667-17.067-42.667-42.667s17.067-42.667 42.667-42.667h85.333v-128h-85.333c-25.6 0-42.667-17.067-42.667-42.667s17.067-42.667 42.667-42.667h85.333v-128c0-72.533 55.467-128 128-128h85.333v-85.333c0-25.6 17.067-42.667 42.667-42.667s42.667 17.067 42.667 42.667v85.333h170.667v-85.333c0-25.6 17.067-42.667 42.667-42.667s42.667 17.067 42.667 42.667v85.333h85.333c72.533 0 128 55.467 128 128v128h85.333c25.6 0 42.667 17.067 42.667 42.667s-17.067 42.667-42.667 42.667zM810.667 170.667c0-25.6-17.067-42.667-42.667-42.667h-512c-25.6 0-42.667 17.067-42.667 42.667v512c0 25.6 17.067 42.667 42.667 42.667h512c25.6 0 42.667-17.067 42.667-42.667v-512z" />
<glyph unicode="&#xe946;" glyph-name="crop" d="M981.333 213.334h-170.667v384c0 72.533-55.467 128-128 128l-379.733-4.267v174.933c0 25.6-17.067 42.667-42.667 42.667 0 0 0 0 0 0-21.333 0-42.667-17.067-42.667-42.667v-174.933h-174.933c-25.6 0-42.667-21.333-42.667-42.667s21.333-42.667 42.667-42.667c0 0 0 0 0 0h174.933l-4.267-379.733c0-72.533 55.467-128 128-128h384v-170.667c0-25.6 17.067-42.667 42.667-42.667s42.667 17.067 42.667 42.667v170.667h170.667c25.6 0 42.667 17.067 42.667 42.667s-17.067 42.667-42.667 42.667zM341.333 213.334c-25.6 0-42.667 17.067-42.667 42.667l4.267 379.733 379.733 4.267c25.6 0 42.667-17.067 42.667-42.667v-384h-384z" />
<glyph unicode="&#xe948;" glyph-name="database" d="M512 896c-204.8 0-426.667-55.467-426.667-170.667v-597.333c0-115.2 221.867-170.667 426.667-170.667s426.667 55.467 426.667 170.667v597.333c0 115.2-221.867 170.667-426.667 170.667zM853.333 426.667c0-21.333-106.667-85.333-341.333-85.333s-341.333 64-341.333 85.333v192c81.067-42.667 213.333-64 341.333-64s260.267 21.333 341.333 64v-192zM512 810.667c221.867 0 341.333-64 341.333-85.333s-119.467-85.333-341.333-85.333c-221.867 0-341.333 64-341.333 85.333s119.467 85.333 341.333 85.333zM512 42.667c-234.667 0-341.333 64-341.333 85.333v192c81.067-42.667 213.333-64 341.333-64s260.267 21.333 341.333 64v-192c0-21.333-106.667-85.333-341.333-85.333z" />
<glyph unicode="&#xe950;" glyph-name="edit-2" d="M925.867 627.2l-213.333 213.333c-17.067 17.067-42.667 17.067-59.733 0l-554.667-554.667c-8.533-8.533-12.8-17.067-12.8-29.867v-213.333c0-25.6 17.067-42.667 42.667-42.667h213.333c12.8 0 21.333 4.267 29.867 12.8l554.667 554.667c17.067 17.067 17.067 42.667 0 59.733zM324.267 85.334h-153.6v153.6l512 512 153.6-153.6-512-512z" />
<glyph unicode="&#xe956;" glyph-name="feather" d="M891.733 810.667c-115.2 115.2-307.2 115.2-422.4 0l-285.867-290.133c-8.533-8.533-12.8-17.067-12.8-29.867v-345.6l-115.2-115.2c-17.067-17.067-17.067-42.667 0-59.733 8.533-8.533 17.067-12.8 29.867-12.8s21.333 4.267 29.867 12.8l115.2 115.2h345.6c12.8 0 21.333 4.267 29.867 12.8l285.867 290.133c119.467 115.2 119.467 302.933 0 422.4zM558.933 170.667h-243.2l85.333 85.333h243.2l-85.333-85.333zM832 448c0 0 0 0 0 0l-102.4-106.667c0 0 0 0-4.267 0h-238.933l226.133 226.133c17.067 17.067 17.067 42.667 0 59.733s-42.667 17.067-59.733 0l-298.667-298.667c0 0 0 0 0 0l-98.133-98.133v243.2l277.333 277.333c85.333 85.333 217.6 85.333 302.933 0 81.067-85.333 81.067-221.867-4.267-302.933z" />
<glyph unicode="&#xe958;" glyph-name="file-minus" d="M891.733 614.4c-4.267 4.267-4.267 8.533-8.533 12.8l-256 256c-4.267 4.267-8.533 8.533-12.8 8.533-4.267 4.267-12.8 4.267-17.067 4.267h-341.333c-72.533 0-128-55.467-128-128v-682.667c0-72.533 55.467-128 128-128h512c72.533 0 128 55.467 128 128v512c0 4.267 0 12.8-4.267 17.067zM640 750.934l110.933-110.933h-110.933v110.933zM768 42.667h-512c-25.6 0-42.667 17.067-42.667 42.667v682.667c0 25.6 17.067 42.667 42.667 42.667h298.667v-213.333c0-25.6 17.067-42.667 42.667-42.667h213.333v-469.333c0-25.6-17.067-42.667-42.667-42.667zM640 341.334h-256c-25.6 0-42.667-17.067-42.667-42.667s17.067-42.667 42.667-42.667h256c25.6 0 42.667 17.067 42.667 42.667s-17.067 42.667-42.667 42.667z" />
<glyph unicode="&#xe95c;" glyph-name="filter" d="M977.067 827.734c-8.533 17.067-21.333 25.6-38.4 25.6h-853.333c-17.067 0-29.867-8.533-38.4-25.6-8.533-12.8-4.267-29.867 4.267-42.667l332.8-392.533v-264.533c0-17.067 8.533-29.867 25.6-38.4l170.667-85.333c4.267-4.267 8.533-4.267 17.067-4.267s17.067 0 21.333 4.267c12.8 8.533 21.333 21.333 21.333 38.4v349.867l332.8 392.533c8.533 12.8 12.8 29.867 4.267 42.667zM563.2 435.2c-4.267-8.533-8.533-17.067-8.533-29.867v-294.4l-85.333 42.667v251.733c0 8.533-4.267 21.333-8.533 25.6l-281.6 337.067h669.867l-285.867-332.8z" />
<glyph unicode="&#xe95f;" glyph-name="folder-minus" d="M853.333 725.334h-362.667l-72.533 110.933c-8.533 8.533-21.333 17.067-34.133 17.067h-213.333c-72.533 0-128-55.467-128-128v-597.333c0-72.533 55.467-128 128-128h682.667c72.533 0 128 55.467 128 128v469.333c0 72.533-55.467 128-128 128zM896 128c0-25.6-17.067-42.667-42.667-42.667h-682.667c-25.6 0-42.667 17.067-42.667 42.667v597.333c0 25.6 17.067 42.667 42.667 42.667h192l72.533-110.933c8.533-8.533 21.333-17.067 34.133-17.067h384c25.6 0 42.667-17.067 42.667-42.667v-469.333zM640 384h-256c-25.6 0-42.667-17.067-42.667-42.667s17.067-42.667 42.667-42.667h256c25.6 0 42.667 17.067 42.667 42.667s-17.067 42.667-42.667 42.667z" />
<glyph unicode="&#xe971;" glyph-name="instagram" d="M725.333 896h-426.667c-140.8 0-256-115.2-256-256v-426.667c0-140.8 115.2-256 256-256h426.667c140.8 0 256 115.2 256 256v426.667c0 140.8-115.2 256-256 256zM896 213.334c0-93.867-76.8-170.667-170.667-170.667h-426.667c-93.867 0-170.667 76.8-170.667 170.667v426.667c0 93.867 76.8 170.667 170.667 170.667h426.667c93.867 0 170.667-76.8 170.667-170.667v-426.667zM546.133 640c-21.333 4.267-42.667 4.267-64 0-115.2-17.067-196.267-128-179.2-243.2 8.533-55.467 38.4-106.667 85.333-140.8 38.4-25.6 81.067-42.667 128-42.667 8.533 0 21.333 0 29.867 4.267 55.467 8.533 106.667 38.4 140.8 85.333s46.933 102.4 38.4 157.867c-12.8 93.867-85.333 166.4-179.2 179.2zM618.667 354.134c-21.333-25.6-51.2-46.933-85.333-51.2-68.267-8.533-136.533 38.4-145.067 106.667-12.8 68.267 38.4 136.533 106.667 145.067 4.267 0 12.8 0 17.067 0s12.8 0 17.067 0c55.467-8.533 98.133-51.2 106.667-106.667 8.533-34.133 0-68.267-17.067-93.867zM716.8 691.2c-8.533-8.533-12.8-17.067-12.8-29.867s4.267-21.333 12.8-29.867c8.533-8.533 21.333-12.8 29.867-12.8 12.8 0 21.333 4.267 29.867 12.8s12.8 21.333 12.8 29.867c0 12.8-4.267 21.333-12.8 29.867-17.067 17.067-42.667 17.067-59.733 0z" />
<glyph unicode="&#xe973;" glyph-name="layers" d="M68.267 601.6l426.667-213.333c4.267-4.267 8.533-4.267 17.067-4.267s12.8 0 17.067 4.267l426.667 213.333c17.067 8.533 25.6 21.333 25.6 38.4s-8.533 29.867-25.6 38.4l-426.667 213.333c-12.8 4.267-25.6 4.267-38.4 0l-426.667-213.333c-12.8-8.533-21.333-21.333-21.333-38.4s8.533-29.867 25.6-38.4zM512 806.4l332.8-166.4-332.8-166.4-332.8 166.4 332.8 166.4zM921.6 251.734l-409.6-204.8-409.6 204.8c-21.333 8.533-46.933 0-55.467-17.067s0-46.933 17.067-55.467l426.667-213.333c8.533-8.533 12.8-8.533 21.333-8.533s12.8 0 17.067 4.267l426.667 213.333c21.333 8.533 29.867 34.133 17.067 55.467-8.533 21.333-34.133 29.867-51.2 21.333zM921.6 465.067l-409.6-204.8-409.6 204.8c-21.333 8.533-46.933 0-55.467-17.067-8.533-21.333 0-46.933 17.067-55.467l426.667-213.333c8.533-8.533 12.8-8.533 21.333-8.533s12.8 0 17.067 4.267l426.667 213.333c21.333 8.533 29.867 34.133 17.067 55.467-8.533 21.333-34.133 29.867-51.2 21.333z" />
<glyph unicode="&#xe974;" glyph-name="layout" d="M810.667 853.334h-597.333c-72.533 0-128-55.467-128-128v-597.333c0-72.533 55.467-128 128-128h597.333c72.533 0 128 55.467 128 128v597.333c0 72.533-55.467 128-128 128zM213.333 768h597.333c25.6 0 42.667-17.067 42.667-42.667v-128h-682.667v128c0 25.6 17.067 42.667 42.667 42.667zM170.667 128v384h170.667v-426.667h-128c-25.6 0-42.667 17.067-42.667 42.667zM810.667 85.334h-384v426.667h426.667v-384c0-25.6-17.067-42.667-42.667-42.667z" />
<glyph unicode="&#xe975;" glyph-name="life-buoy" d="M844.8 93.867c85.333 85.333 136.533 200.533 136.533 332.8 0 128-51.2 247.467-136.533 332.8 0 0 0 0 0 0s0 0 0 0c-85.333 85.333-204.8 136.533-332.8 136.533s-247.467-51.2-332.8-136.533c0 0 0 0 0 0s0 0 0 0c-85.333-85.333-136.533-204.8-136.533-332.8s51.2-247.467 136.533-332.8c0 0 0 0 0 0s0 0 0 0c85.333-85.333 200.533-136.533 332.8-136.533 128 0 247.467 51.2 332.8 136.533 0 0 0 0 0 0s0 0 0 0zM810.667 187.734l-123.733 123.733c25.6 29.867 38.4 72.533 38.4 115.2s-12.8 85.333-34.133 119.467l119.467 119.467c51.2-64 85.333-149.333 85.333-238.933s-29.867-174.933-85.333-238.933zM384 426.667c0 72.533 55.467 128 128 128s128-55.467 128-128-55.467-128-128-128-128 55.467-128 128zM750.933 725.334l-123.733-123.733c-29.867 25.6-72.533 38.4-115.2 38.4s-85.333-12.8-119.467-34.133l-119.467 119.467c64 55.467 149.333 85.333 238.933 85.333s174.933-29.867 238.933-85.333zM213.333 665.6l123.733-123.733c-25.6-29.867-38.4-72.533-38.4-115.2s12.8-85.333 34.133-119.467l-119.467-119.467c-51.2 64-85.333 149.333-85.333 238.933s29.867 174.933 85.333 238.933zM273.067 128l123.733 123.733c29.867-25.6 72.533-38.4 115.2-38.4s85.333 12.8 119.467 34.133l123.733-123.733c-64-51.2-149.333-85.333-238.933-85.333-93.867 4.267-179.2 34.133-243.2 89.6z" />
<glyph unicode="&#xe977;" glyph-name="link-2" d="M384 256h-128c-93.867 0-170.667 76.8-170.667 170.667s76.8 170.667 170.667 170.667h128c25.6 0 42.667 17.067 42.667 42.667s-17.067 42.667-42.667 42.667h-128c-140.8 0-256-115.2-256-256s115.2-256 256-256h128c25.6 0 42.667 17.067 42.667 42.667s-17.067 42.667-42.667 42.667zM768 682.667h-128c-25.6 0-42.667-17.067-42.667-42.667s17.067-42.667 42.667-42.667h128c93.867 0 170.667-76.8 170.667-170.667s-76.8-170.667-170.667-170.667h-128c-25.6 0-42.667-17.067-42.667-42.667s17.067-42.667 42.667-42.667h128c140.8 0 256 115.2 256 256s-115.2 256-256 256zM298.667 426.667c0-25.6 17.067-42.667 42.667-42.667h341.333c25.6 0 42.667 17.067 42.667 42.667s-17.067 42.667-42.667 42.667h-341.333c-25.6 0-42.667-17.067-42.667-42.667z" />
</font>
</defs>
</svg>
